<?xml version="1.0" standalone="no"?>
<!DOCTYPE svg PUBLIC "-//W3C//DTD SVG 1.1//EN" "http://www.w3.org/Graphics/SVG/1.1/DTD/svg11.dtd">
<svg xmlns="http://www.w3.org/2000/svg">
<defs >
<font id="SourceCodePro" horiz-adv-x="600" ><font-face
    font-family="Source Code Pro"
    units-per-em="1000"
    panose-1="2 11 3 9 3 4 3 2 2 4"
    ascent="984"
    descent="-273"
    alphabetic="0" />
<glyph unicode=" " />
<glyph unicode="!" d="M252 255L232 537L227 670H373L368 537L348 255H252ZM300 -12Q257 -12 229 16T200 90Q200 134 228 162T300 190Q343 190 371 162T400 90Q400 45 372 17T300 -12Z" />
<glyph unicode="&quot;" d="M122 303L87 540L82 685H252L247 540L212 303H122ZM388 303L353 540L348 685H518L513 540L478 303H388Z" />
<glyph unicode="#" d="M311 0L391 650H475L396 0H311ZM122 0L202 650H286L207 0H122ZM90 391V485H534V391H90ZM70 187V281H514V187H70Z" />
<glyph unicode="$" d="M64 115L128 215Q176 186 219 170T309 153Q345 153 364 165T383 198Q383 219 362 233T307 260T237 287T166 322T112 374T91 451Q91 502 118 539T194 597T311 618Q380 618 428 594T513 533L440 449Q405 474 374 486T301 499Q268 499 250 487T232
453Q232 436 253 423T307 399T377 373T448 337T502 286T523 209Q523 159 496 120T417 57T287 34Q252 34 212 44T133 72T64 115ZM255 572V745H353V572H255ZM255 94H353V-110H255V94Z" />
<glyph unicode="%" d="M173 312Q131 312 97 332T44 391T25 481Q25 559 67 603T173 648Q237 648 279 604T321 481Q321 430 302 392T249 333T173 312ZM173 391Q192 391 206 410T221 481Q221 532 207 550T173 569Q155 569 140 551T125 481Q125 430 140 411T173 391ZM93
28L18 101L204 274L255 227L93 28ZM398 377L347 425L509 624L584 551L398 377ZM427 -12Q385 -12 351 8T298 67T279 157Q279 235 321 279T427 324Q491 324 533 280T575 157Q575 106 556 68T503 9T427 -12ZM427 67Q446 67 460 86T475 157Q475 208 461 226T427 245Q409
245 394 227T379 157Q379 106 394 87T427 67Z" />
<glyph unicode="&amp;" d="M232 -12Q164 -12 118 13T47 81T23 174Q23 225 42 261T92 324T157 373T221 416T271 461T291 516Q291 539 282 553T250 567Q231 567 219 548T207 494Q207 455 229 411T289 323T372 239T464 169Q497 146 528 130T586 107L551 -12Q508 -1
465 21T376 76Q319 117 266 169T173 279T109 392T86 493Q86 540 105 578T161 640T247 664Q320 664 362 624T404 516Q404 476 387 445T342 387T283 337T225 290T180 241T162 183Q162 158 173 140T204 111T251 100Q280 100 307 118T362 166Q393 204 416 255T452 368H586Q567
295 537 228T463 100Q421 50 364 19T232 -12Z" />
<glyph unicode="&apos;" d="M255 303L220 540L215 685H385L380 540L345 303H255Z" />
<glyph unicode="(" d="M392 -179Q295 -92 238 22T181 278Q181 419 238 534T392 735L474 670Q384 583 344 490T304 278Q304 160 344 67T474 -114L392 -179Z" />
<glyph unicode=")" d="M208 -179L126 -114Q216 -27 256 66T296 278Q296 397 256 490T126 670L208 735Q305 649 362 534T419 278Q419 137 362 23T208 -179Z" />
<glyph unicode="*" d="M184 91L120 135L217 292L64 360L87 431L249 388L261 566H339L351 388L513 431L536 360L383 292L480 135L416 91L300 233L184 91Z" />
<glyph unicode="+" d="M246 94V278H70V382H246V566H354V382H530V278H354V94H246Z" />
<glyph unicode="," d="M219 -217L182 -131Q249 -108 281 -71T312 14L307 133L367 33Q353 21 337 16T301 10Q273 10 248 22T208 56T193 112Q193 158 226 186T305 215Q367 215 398 170T429 43Q429 -52 376 -118T219 -217Z" />
<glyph unicode="-" d="M70 278V382H530V278H70Z" />
<glyph unicode="." d="M300 -12Q249 -12 217 22T184 105Q184 154 216 188T300 223Q352 223 384 189T416 105Q416 56 384 22T300 -12Z" />
<glyph unicode="/" d="M74 -160L403 710H526L197 -160H74Z" />
<glyph unicode="0" d="M300 -12Q227 -12 172 26T87 139T56 320Q56 483 123 565T300 647Q411 647 477 565T544 320Q544 213 514 139T429 27T300 -12ZM300 102Q332 102 357 122T398 190T413 320Q413 403 398 449T358 514T300 533Q269 533 243 515T202 450T187 320Q187
238 202 190T243 122T300 102ZM300 246Q269 246 247 267T225 322Q225 357 247 377T300 398Q332 398 353 378T375 322Q375 288 354 267T300 246Z" />
<glyph unicode="1" d="M79 0V119H250V486H109V577Q152 584 183 591T240 609T289 635H397V119H541V0H79Z" />
<glyph unicode="2" d="M58 0V84Q149 161 217 223T324 338T362 436Q362 483 335 507T258 532Q220 532 189 513T130 467L51 546Q100 597 152 622T278 647Q344 647 394 622T473 552T502 445Q502 391 470 336T384 226T269 116Q296 119 328 121T384 124H535V0H58Z" />
<glyph unicode="3" d="M279 -12Q225 -12 181 -1T101 31T42 78L110 171Q142 143 182 125T265 107Q299 107 326 115T368 141T384 182Q384 210 367 230T309 262T192 273V377Q255 377 292 388T346 418T363 462Q363 496 338 514T269 532Q232 532 200 518T134 476L60
566Q107 604 161 625T276 647Q345 647 398 627T480 568T510 473Q510 424 478 389T389 332V328Q429 317 461 297T512 245T531 173Q531 114 496 73T404 10T279 -12Z" />
<glyph unicode="4" d="M341 0V371Q341 401 343 440T346 510H342Q326 484 308 457T273 402L177 264H558V152H35V253L300 635H478V0H341Z" />
<glyph unicode="5" d="M283 -12Q228 -12 184 0T106 32T46 77L112 170Q133 153 156 139T205 116T262 107Q298 107 326 118T369 152T385 206Q385 254 352 279T269 304Q238 304 217 297T162 272L97 314L114 635H503V511H241L230 392Q253 400 271 403T314 407Q373
407 422 386T502 321T532 210Q532 139 497 90T405 14T283 -12Z" />
<glyph unicode="6" d="M317 -12Q268 -12 222 6T140 62T82 159T60 303Q60 392 83 457T144 564T232 626T334 647Q401 647 452 625T536 571L459 483Q439 501 409 514T347 528Q306 528 272 507T216 437T195 303Q195 224 212 180T256 117T314 98Q340 98 362 109T397
142T411 201Q411 250 385 271T317 293Q289 293 258 278T195 225L189 321Q224 358 268 377T349 397Q404 397 448 376T519 312T545 201Q545 135 514 87T431 14T317 -12Z" />
<glyph unicode="7" d="M193 0Q197 79 208 146T241 272T297 390T381 511H62V635H539V545Q479 478 442 419T385 299T355 166T341 0H193Z" />
<glyph unicode="8" d="M299 -12Q226 -12 172 10T90 71T61 162Q61 201 77 230T121 280T181 318V322Q141 350 115 386T88 472Q88 526 115 565T192 626T304 647Q399 647 455 600T512 473Q512 429 485 394T421 334V330Q455 314 482 292T524 238T540 164Q540 114 512
75T431 12T299 -12ZM343 370Q391 414 391 463Q391 488 381 506T350 534T301 545Q266 545 242 527T217 472Q217 446 233 428T277 396T343 370ZM303 90Q348 90 375 109T403 169Q403 190 392 206T361 234T312 256T250 280Q232 267 218 252T196 218T188 179Q188 151
203 131T244 101T303 90Z" />
<glyph unicode="9" d="M265 -12Q197 -12 146 11T62 64L140 152Q160 134 190 121T252 107Q293 107 327 128T383 198T404 332Q404 411 387 455T343 518T284 537Q259 537 237 526T201 493T187 434Q187 386 213 364T282 342Q311 342 342 357T403 410L410 314Q375 279
331 259T250 238Q195 238 150 259T79 323T53 434Q53 500 85 548T169 621T281 647Q331 647 376 629T459 573T517 476T538 332Q538 243 516 178T455 71T367 9T265 -12Z" />
<glyph unicode=":" d="M300 311Q249 311 217 345T184 428Q184 477 216 511T300 546Q352 546 384 512T416 428Q416 379 384 345T300 311ZM300 -12Q249 -12 217 22T184 105Q184 154 216 188T300 223Q352 223 384 189T416 105Q416 56 384 22T300 -12Z" />
<glyph unicode=";" d="M300 311Q249 311 217 345T184 428Q184 477 216 511T300 546Q352 546 384 512T416 428Q416 379 384 345T300 311ZM219 -217L182 -131Q249 -108 281 -71T312 14L307 133L367 33Q353 21 337 16T301 10Q273 10 248 22T208 56T193 112Q193 158
226 186T305 215Q367 215 398 170T429 43Q429 -52 376 -118T219 -217Z" />
<glyph unicode="&lt;" d="M502 31L116 281V383L502 633V500L237 334V330L502 164V31Z" />
<glyph unicode="=" d="M70 394V498H530V394H70ZM70 418V522H530V418H70Z" />
<glyph unicode="&gt;" d="M98 31V164L363 330V334L98 500V633L484 383V281L98 31Z" />
<glyph unicode="?" d="M218 255Q211 295 223 325T256 378T301 420T340 459T356 500Q356 531 335 547T282 563Q251 563 227 551T180 517L98 592Q134 632 183 657T292 682Q350 682 396 664T469 610T497 519Q497 479 481 452T441 402T394 360T357 315T346 255H218ZM286
-12Q243 -12 215 16T186 90Q186 134 214 162T286 190Q329 190 357 162T386 90Q386 45 358 17T286 -12Z" />
<glyph unicode="@" d="M339 -147Q279 -147 224 -123T125 -49T56 75T31 253Q31 389 72 475T181 603T331 644Q408 644 456 612T527 524T550 399V100H472L461 151H457Q438 124 408 106T337 88Q301 88 272 107T227 158T210 228Q210 282 240 316T327 371T459 400V416Q459
453 445 485T402 536T328 556Q293 556 259 539T195 485T149 390T132 249Q132 145 162 77T241 -24T344 -58Q389 -58 418 -48T477 -20L519 -93Q477 -117 435 -132T339 -147ZM370 184Q392 184 409 194T444 220V312Q374 301 346 284T317 232Q317 210 331 197T370 184Z"
/>
<glyph unicode="A" d="M9 0L212 652H388L591 0H435L351 330Q339 379 325 434T299 540H295Q283 489 270 434T244 330L159 0H9ZM143 155V270H455V155H143Z" />
<glyph unicode="B" d="M74 0V652H293Q361 652 415 638T500 588T532 490Q532 446 505 405T420 349V345Q490 333 526 296T562 192Q562 126 529 84T440 21T312 0H74ZM221 390H286Q340 390 364 411T388 470Q388 506 364 521T287 537H221V390ZM221 115H300Q360 115
389 137T418 203Q418 246 389 265T300 284H221V115Z" />
<glyph unicode="C" d="M356 -12Q295 -12 241 9T144 72T78 177T54 322Q54 430 95 506T207 623T365 664Q427 664 477 639T560 581L479 490Q456 512 429 524T365 537Q319 537 283 512T226 439T205 327Q205 260 226 213T284 140T371 115Q407 115 436 131T489 173L570
84Q530 37 476 13T356 -12Z" />
<glyph unicode="D" d="M70 0V652H250Q345 652 415 618T525 513T564 329Q564 217 526 144T418 36T259 0H70ZM218 119H242Q294 119 332 139T391 205T413 329Q413 407 392 451T332 514T242 533H218V119Z" />
<glyph unicode="E" d="M92 0V652H524V528H240V397H481V274H240V124H534V0H92Z" />
<glyph unicode="F" d="M105 0V652H538V528H252V377H496V253H252V0H105Z" />
<glyph unicode="G" d="M343 -12Q260 -12 192 25T84 137T44 322Q44 431 84 507T192 624T345 664Q411 664 458 639T536 581L455 490Q434 511 409 524T345 537Q303 537 269 512T216 439T196 327Q196 260 213 213T265 140T351 115Q370 115 387 120T415 135V247H320V367H547V67Q514
36 460 12T343 -12Z" />
<glyph unicode="H" d="M64 0V652H211V400H389V652H536V0H389V272H211V0H64Z" />
<glyph unicode="I" d="M74 0V124H226V528H74V652H526V528H374V124H526V0H74Z" />
<glyph unicode="J" d="M273 -12Q219 -12 161 12T59 96L144 187Q172 152 204 134T268 115Q318 115 343 141T369 234V529H114V652H516V222Q516 158 493 105T417 20T273 -12Z" />
<glyph unicode="K" d="M68 0V652H217V385H220L413 652H576L217 178V0H68ZM431 0L279 303L366 418L594 0H431Z" />
<glyph unicode="L" d="M107 0V652H254V124H544V0H107Z" />
<glyph unicode="M" d="M58 0V652H212L276 421L298 331H302L324 421L388 652H542V0H418V202Q418 229 420 269T425 354T431 438T437 504H434L384 330L334 173H262L211 330L164 504H161Q163 478 166 438T173 354T178 270T180 202V0H58Z" />
<glyph unicode="N" d="M66 0V652H217L354 328L410 184H414Q409 236 401 300T393 421V652H534V0H383L246 325L190 467H186Q191 414 199 352T207 231V0H66Z" />
<glyph unicode="O" d="M300 -12Q222 -12 163 27T71 141T38 329Q38 438 71 512T163 625T300 664Q378 664 437 626T529 513T562 329Q562 217 529 142T437 27T300 -12ZM300 115Q334 115 359 139T397 211T411 329Q411 397 398 443T359 513T300 537Q266 537 241 513T203
443T189 329Q189 259 202 212T241 140T300 115Z" />
<glyph unicode="P" d="M75 0V652H306Q377 652 434 633T526 567T561 442Q561 366 526 317T433 245T306 221H222V0H75ZM222 338H297Q358 338 387 365T417 442Q417 494 387 514T297 535H222V338Z" />
<glyph unicode="Q" d="M300 -12Q222 -12 163 27T71 141T38 329Q38 438 71 512T163 625T300 664Q378 664 437 626T529 513T562 329Q562 217 529 142T437 27T300 -12ZM300 108Q334 108 359 132T397 204T411 329Q411 397 398 443T359 513T300 537Q266 537 241 513T203
443T189 329Q189 253 202 205T241 132T300 108ZM487 -178Q390 -178 325 -127T229 4L378 19Q388 -11 407 -28T452 -53T505 -60Q520 -60 533 -56T557 -47L583 -157Q567 -166 543 -172T487 -178Z" />
<glyph unicode="R" d="M70 0V652H301Q370 652 427 634T518 571T553 449Q553 374 519 327T427 258T301 235H217V0H70ZM217 352H289Q347 352 377 376T408 449Q408 497 378 516T289 535H217V352ZM274 273L376 368L584 0H419L274 273Z" />
<glyph unicode="S" d="M298 -12Q232 -12 168 12T50 82L135 183Q172 153 216 134T308 115Q355 115 377 131T400 172Q400 195 388 208T353 232T299 256L215 292Q179 306 147 329T96 387T76 470Q76 524 106 567T190 637T315 664Q374 664 431 642T532 578L457 485Q423
510 389 523T307 537Q271 537 248 522T225 478Q225 459 239 446T277 423T332 401L411 367Q455 351 486 328T534 270T551 190Q551 136 522 90T436 16T298 -12Z" />
<glyph unicode="T" d="M226 0V528H31V652H569V528H374V0H226Z" />
<glyph unicode="U" d="M302 -12Q242 -12 198 5T124 56T79 138T64 251V652H211V236Q211 197 221 170T251 129T302 115Q333 115 353 129T384 170T394 236V652H536V251Q536 187 522 139T479 57T405 6T302 -12Z" />
<glyph unicode="V" d="M212 0L15 652H171L249 348Q264 294 275 244T301 139H305Q321 193 332 243T358 348L435 652H585L389 0H212Z" />
<glyph unicode="W" d="M91 0L4 652H157L177 305Q177 277 178 251T179 198T180 141H184Q188 171 193 197T205 251T216 305L260 487H354L395 305Q401 278 406 252T417 199T427 141H431Q432 171 432 198T433 252T435 305L453 652H596L516 0H358L320 202Q314 233 309
265T302 326H299Q296 297 292 265T282 202L244 0H91Z" />
<glyph unicode="X" d="M18 0L208 335L29 652H194L257 529Q268 507 280 481T307 424H311Q322 455 333 481T355 529L413 652H571L392 328L582 0H418L347 133Q334 159 322 184T295 240H291Q279 210 267 185T243 133L175 0H18Z" />
<glyph unicode="Y" d="M226 0V220L16 652H174L240 495Q255 458 269 422T299 346H303Q319 385 334 421T364 495L430 652H584L374 220V0H226Z" />
<glyph unicode="Z" d="M56 0V89L361 529H85V652H543V563L238 124H547V0H56Z" />
<glyph unicode="[" d="M200 -152V708H496V630H312V-74H496V-152H200Z" />
<glyph unicode="\" d="M403 -160L74 710H197L526 -160H403Z" />
<glyph unicode="]" d="M104 -152V-74H288V630H104V708H400V-152H104Z" />
<glyph unicode="^" d="M86 274L241 670H359L514 274H393L347 402L302 537H298L253 402L207 274H86Z" />
<glyph unicode="_" d="M60 -164V-54H540V-164H60Z" />
<glyph unicode="`" d="M306 561L125 717L225 815L378 633L306 561Z" />
<glyph unicode="a" d="M224 -12Q174 -12 138 8T81 62T61 138Q61 221 136 265T388 319Q385 342 373 358T339 382T282 391Q258 391 234 386T185 370T131 345L79 441Q113 461 150 476T228 499T311 508Q381 508 431 484T508 410T535 284V0H415L404 56H400Q363 28 318
8T224 -12ZM271 102Q304 102 333 115T388 149V231Q315 227 275 216T218 188T202 149Q202 134 210 123T234 107T271 102Z" />
<glyph unicode="b" d="M338 -12Q304 -12 269 5T203 54H199L187 0H72V701H219V529L214 451H217Q246 478 281 493T353 508Q416 508 460 477T529 390T553 257Q553 172 523 112T443 20T338 -12ZM305 108Q332 108 354 123T389 170T402 254Q402 299 392 328T363 373T311
388Q287 388 265 378T219 342V141Q240 124 262 116T305 108Z" />
<glyph unicode="c" d="M343 -12Q265 -12 203 18T104 107T67 248Q67 330 107 388T212 477T354 508Q413 508 461 490T540 441L472 350Q443 370 417 379T362 389Q320 389 287 372T236 323T218 248Q218 205 235 173T284 124T357 107Q396 107 428 121T488 154L547 61Q503
24 449 6T343 -12Z" />
<glyph unicode="d" d="M256 -12Q162 -12 105 57T47 248Q47 329 77 387T157 476T259 508Q300 508 330 494T384 455H388L381 532V701H528V0H408L397 51H394Q367 24 331 6T256 -12ZM294 108Q319 108 340 118T381 154V355Q361 373 341 380T298 388Q271 388 248 373T212
328T198 250Q198 177 223 143T294 108Z" />
<glyph unicode="e" d="M330 -12Q253 -12 191 18T92 107T55 248Q55 329 92 387T188 477T313 508Q390 508 442 477T520 392T547 270Q547 250 545 232T540 204H164V303H441L418 275Q418 335 393 365T318 396Q282 396 255 380T213 331T198 248Q198 197 216 165T268
116T350 100Q384 100 414 109T478 135L527 46Q484 19 432 4T330 -12Z" />
<glyph unicode="f" d="M213 0V509Q213 566 236 612T308 686T435 713Q478 713 516 705T585 686L557 578Q533 587 508 592T453 597Q406 597 383 576T360 510V0H213ZM82 381V490L218 496H531V381H82Z" />
<glyph unicode="g" d="M277 -211Q212 -211 162 -198T82 -156T52 -84Q52 -54 71 -29T129 15V19Q108 33 94 53T79 104Q79 129 95 154T138 197V201Q111 219 92 252T73 328Q73 388 102 428T180 488T285 508Q331 508 367 496H568V388H468Q477 377 483 360T490 323Q490
266 463 230T389 175T285 157Q271 157 253 159T217 167Q205 159 200 151T195 130Q195 111 215 102T279 93H371Q469 93 520 64T572 -32Q572 -84 536 -124T434 -188T277 -211ZM285 246Q306 246 323 255T350 282T360 328Q360 354 350 372T323 399T285 409Q265 409
248 400T221 372T211 328Q211 301 221 283T248 255T285 246ZM298 -118Q338 -118 368 -110T415 -89T432 -58Q432 -33 410 -27T345 -20H283Q256 -20 239 -18T207 -13Q188 -25 180 -36T172 -62Q172 -89 206 -103T298 -118Z" />
<glyph unicode="h" d="M72 0V701H219V529L211 434H214Q242 463 282 485T379 508Q463 508 501 454T540 306V0H393V287Q393 337 377 360T320 383Q290 383 268 370T219 331V0H72Z" />
<glyph unicode="i" d="M278 0V381H78V496H425V0H278ZM345 574Q303 574 275 598T247 663Q247 704 275 729T345 755Q388 755 415 730T443 663Q443 623 416 599T345 574Z" />
<glyph unicode="j" d="M195 -196Q149 -196 112 -187T42 -162L85 -57Q115 -70 139 -75T186 -81Q222 -81 242 -70T270 -35T278 24V381H78V496H425V30Q425 -16 414 -56T377 -128T307 -178T195 -196ZM345 574Q303 574 275 598T247 663Q247 704 275 729T345 755Q388
755 415 730T443 663Q443 623 416 599T345 574Z" />
<glyph unicode="k" d="M76 0V701H223V296H227L409 496H570L223 125V0H76ZM426 0L282 225L366 316L585 0H426Z" />
<glyph unicode="l" d="M395 -12Q302 -12 254 44T206 194V585H51V700H353V188Q353 142 378 125T433 107Q451 107 469 111T511 123L543 15Q505 3 474 -4T395 -12Z" />
<glyph unicode="m" d="M35 0V496H146L156 435H160Q174 465 199 486T267 508Q299 508 322 488T353 427Q367 461 393 484T463 508Q516 508 545 465T574 348V0H434V338Q434 383 407 383Q393 383 383 372T362 335V0H247V338Q247 361 240 372T219 383Q205 383 195 372T175
335V0H35Z" />
<glyph unicode="n" d="M72 0V496H192L203 430H207Q239 462 280 485T378 508Q462 508 501 454T540 306V0H393V287Q393 337 377 360T320 383Q290 383 268 370T219 331V0H72Z" />
<glyph unicode="o" d="M300 -12Q235 -12 177 18T83 107T47 248Q47 330 83 388T177 477T300 508Q365 508 423 478T517 389T553 248Q553 166 517 108T423 19T300 -12ZM300 107Q334 107 356 124T390 173T402 248Q402 291 391 323T357 372T300 389Q266 389 244 372T210
323T198 248Q198 205 209 173T243 124T300 107Z" />
<glyph unicode="p" d="M72 -184V496H192L203 446H206Q237 473 275 490T354 508Q416 508 460 477T529 389T553 256Q553 171 523 111T443 20T338 -12Q305 -12 274 2T216 42H212L219 -39V-184H72ZM304 108Q332 108 354 123T389 170T402 254Q402 299 392 328T363 373T311
388Q287 388 265 378T219 342V141Q240 124 262 116T304 108Z" />
<glyph unicode="q" d="M381 -184V-35L388 45H384Q360 20 326 4T256 -12Q162 -12 105 57T47 248Q47 329 77 387T157 476T259 508Q301 508 334 493T397 445H401L413 496H528V-184H381ZM294 108Q319 108 340 118T381 154V355Q361 373 341 380T298 388Q271 388 248
373T212 328T198 250Q198 177 223 143T294 108Z" />
<glyph unicode="r" d="M116 0V496H236L248 388H251Q288 449 340 478T452 508Q485 508 505 503T548 488L518 365Q495 372 477 375T430 379Q384 379 340 352T263 258V0H116Z" />
<glyph unicode="s" d="M296 -12Q230 -12 165 10T53 64L116 156Q161 127 211 112T316 97Q357 97 376 109T395 139Q395 150 390 157T371 171T334 184T273 198Q172 220 128 258T84 353Q84 423 145 465T312 508Q379 508 433 487T527 440L461 352Q424 375 382 387T299
399Q276 399 261 395T238 381T230 360Q230 340 256 331T345 307Q421 290 464 268T523 218T540 148Q540 103 513 67T431 10T296 -12Z" />
<glyph unicode="t" d="M388 -12Q309 -12 263 15T195 92T174 206V381H50V490L181 496L200 648H321V496H531V381H321V207Q321 170 332 147T366 114T425 103Q454 103 478 108T524 121L550 15Q517 5 478 -3T388 -12Z" />
<glyph unicode="u" d="M223 -12Q138 -12 100 42T62 190V496H209V209Q209 159 224 136T281 113Q309 113 331 125T378 170V496H525V0H405L394 71H390Q357 34 317 11T223 -12Z" />
<glyph unicode="v" d="M218 0L31 496H179L257 262Q269 225 280 187T302 109H306Q317 149 327 187T350 262L428 496H569L387 0H218Z" />
<glyph unicode="w" d="M85 0L4 496H146L177 266Q182 230 185 194T193 119H196Q201 157 206 194T219 266L250 430H357L389 266Q396 230 402 194T414 119H418Q423 157 425 193T432 266L460 496H596L520 0H347L320 161Q316 194 312 230T302 308H298Q295 277 291 243T281
161L255 0H85Z" />
<glyph unicode="x" d="M37 0L209 258L48 496H206L257 416Q269 395 283 374T309 331H313Q322 352 333 374T354 416L398 496H552L390 241L562 0H404L347 82Q333 103 319 125T290 168H286Q275 147 263 126T240 82L191 0H37Z" />
<glyph unicode="y" d="M143 -194Q121 -194 102 -191T67 -184L93 -72Q103 -75 113 -76T132 -78Q175 -78 199 -60T236 -13L246 13L31 496H177L260 283Q274 248 286 211T310 134H314Q324 171 336 209T359 283L432 496H571L375 -5Q352 -67 322 -109T249 -172T143 -194Z" />
<glyph unicode="z" d="M70 0V79L329 381H101V496H533V418L273 115H540V0H70Z" />
<glyph unicode="{" d="M419 -152Q323 -152 278 -121T233 -10Q233 26 235 52T240 104T243 161Q243 179 231 195T190 223T106 235V321Q160 322 189 333T231 360T243 395Q243 426 241 451T236 504T233 566Q233 647 278 677T419 708H496V630H455Q414 630 392 624T362
603T353 560Q353 520 355 481T358 397Q358 340 335 315T258 280V276Q312 267 335 242T358 159Q358 114 356 75T353 -4Q353 -32 361 -47T392 -68T455 -74H496V-152H419Z" />
<glyph unicode="|" d="M235 -250V750H365V-250H235Z" />
<glyph unicode="}" d="M105 -152V-74H146Q187 -74 209 -68T239 -47T247 -4Q247 36 245 75T243 159Q243 216 266 241T343 276V280Q289 289 266 314T243 397Q243 442 245 481T247 560Q247 588 239 603T209 624T146 630H105V708H182Q278 708 323 678T368 566Q368
531 366 504T360 452T357 395Q357 377 369 361T411 333T495 321V235Q441 234 411 223T369 196T357 161Q357 129 360 104T365 53T368 -10Q368 -90 323 -121T182 -152H105Z" />
<glyph unicode="~" d="M385 240Q355 240 331 251T288 278T251 304T213 316Q199 316 186 307T161 280T140 234L52 275Q84 353 126 386T215 420Q246 420 269 409T312 382T349 356T387 344Q402 344 414 353T439 380T460 426L548 385Q517 307 475 274T385 240Z" />
<glyph unicode="&#xa0;" />
<glyph unicode="&#xa1;" d="M227 -174L232 -41L252 241H348L368 -41L373 -174H227ZM300 306Q257 306 229 334T200 406Q200 451 228 479T300 508Q343 508 371 480T400 406Q400 362 372 334T300 306Z" />
<glyph unicode="&#xa2;" d="M358 51Q280 51 221 81T129 168T96 307Q96 388 133 445T232 533T371 563Q417 563 454 548T516 506L449 416Q431 431 415 437T380 444Q333 444 302 428T255 380T239 307Q239 244 274 207T375 170Q402 170 424 181T464 206L523 113Q488
81 444 66T358 51ZM311 -41V655H392V-41H311Z" />
<glyph unicode="&#xa3;" d="M67 0V91Q118 111 151 151T185 244Q185 269 178 294T160 344T143 393T135 442Q135 505 164 551T245 622T363 647Q425 647 470 626T549 566L470 486Q450 507 428 517T377 528Q330 528 302 505T274 434Q274 410 280 388T293 342T306 294T312
243Q312 207 300 181T259 128V124H550V0H67ZM70 271V357L158 362H456V271H70Z" />
<glyph unicode="&#xa4;" d="M109 63L36 137L117 219Q100 242 92 269T83 330Q83 363 91 390T116 439L36 521L109 595L198 505Q247 530 300 530Q353 530 402 505L491 595L564 521L483 439Q499 417 508 390T517 330Q517 297 508 270T482 219L564 137L491 63L401 154Q378
142 352 136T300 130Q245 130 199 154L109 63ZM300 232Q324 232 344 244T375 278T386 330Q386 360 375 382T344 416T300 428Q276 428 257 416T226 382T214 330Q214 300 225 278T256 244T300 232Z" />
<glyph unicode="&#xa5;" d="M226 0V147H57V217H226V272H57V342H194L31 635H182L243 502Q258 469 271 437T300 371H304Q318 404 332 437T361 502L422 635H569L406 342H543V272H373V217H543V147H373V0H226Z" />
<glyph unicode="&#xa6;" d="M235 -250V190H365V-250H235ZM235 310V750H365V310H235Z" />
<glyph unicode="&#xa7;" d="M276 -84Q221 -84 168 -63T81 0L165 75Q190 50 218 37T276 24Q307 24 321 36T336 67Q336 86 317 100T268 127T204 155T140 192T90 247T71 326Q71 372 103 412T189 471L262 409Q229 398 212 380T195 337Q195 311 215 293T266 261T331
231T397 196T448 146T468 74Q468 29 446 -7T382 -63T276 -84ZM337 198Q372 211 388 228T405 272Q405 300 385 318T333 351T265 381T197 415T145 464T124 537Q124 582 145 616T206 670T302 690Q360 690 406 670T484 625L416 533Q393 553 365 567T310 581Q283 581
270 571T256 542Q256 524 276 511T327 484T392 455T458 416T509 361T529 284Q529 251 516 224T479 176T420 137L337 198Z" />
<glyph unicode="&#xa8;" d="M189 571Q154 571 132 594T109 651Q109 685 131 708T189 732Q225 732 247 709T269 651Q269 618 247 595T189 571ZM411 571Q375 571 353 594T331 651Q331 685 353 708T411 732Q446 732 468 709T491 651Q491 618 469 595T411 571Z" />
<glyph unicode="&#xa9;" d="M300 -9Q224 -9 160 31T58 147T19 325Q19 429 57 503T160 616T300 655Q376 655 440 616T542 503T581 325Q581 222 543 147T440 32T300 -9ZM300 52Q365 52 413 86T489 181T517 325Q517 407 490 468T414 562T300 595Q235 595 187 562T111
468T83 325Q83 243 110 182T186 86T300 52ZM312 127Q262 127 223 151T162 219T139 324Q139 382 163 425T227 492T312 516Q351 516 377 502T424 467L369 406Q358 418 347 424T321 430Q284 430 265 399T245 324Q245 273 264 243T316 213Q336 213 349 220T376 237L423
169Q400 151 373 139T312 127Z" />
<glyph unicode="&#xaa;" d="M255 367Q205 367 175 396T145 467Q145 518 195 549T358 587Q356 601 348 610T327 625T293 630Q271 630 246 623T193 601L156 669Q191 689 231 701T314 713Q382 713 421 676T460 563V375H377L369 411H367Q344 392 316 380T255 367ZM284
445Q307 445 324 452T358 472V528Q295 524 270 510T245 477Q245 460 256 453T284 445Z" />
<glyph unicode="&#xab;" d="M213 25L42 179V325L213 479L275 424L148 252L275 80L213 25ZM479 25L308 179V325L479 479L541 424L414 252L541 80L479 25Z" />
<glyph unicode="&#xac;" d="M422 94V278H70V382H530V94H422Z" />
<glyph unicode="&#xad;" d="M70 278V382H530V278H70Z" />
<glyph unicode="&#xae;" d="M299 311Q244 311 199 337T128 408T101 513Q101 572 127 617T199 689T299 715Q354 715 399 689T470 618T497 513Q497 454 471 409T399 337T299 311ZM299 360Q341 360 373 379T424 432T443 513Q443 559 425 593T374 647T299 666Q257
666 225 647T174 594T155 513Q155 467 173 433T224 379T299 360ZM218 416V613H307Q342 613 365 597T388 547Q388 531 380 516T353 493L395 416H335L305 476H276V416H218ZM276 516H296Q312 516 319 524T327 544Q327 555 320 562T297 570H276V516Z" />
<glyph unicode="&#xaf;" d="M152 592V685H448V592H152Z" />
<glyph unicode="&#xb0;" d="M301 398Q260 398 228 416T176 467T156 542Q156 584 175 616T227 667T301 686Q341 686 374 668T426 617T445 542Q445 500 426 468T374 417T301 398ZM301 468Q331 468 349 489T368 542Q368 575 350 595T301 615Q271 615 253 595T234
542Q234 510 252 489T301 468Z" />
<glyph unicode="&#xb1;" d="M246 158V294H70V398H246V566H354V398H530V294H354V158H246ZM70 0V104H530V0H70Z" />
<glyph unicode="&#xb2;" d="M155 376L147 433Q206 477 249 511T315 574T338 627Q338 656 321 672T271 689Q248 689 228 677T190 641L129 697Q160 738 200 758T288 778Q357 778 399 743T442 646Q442 614 427 586T383 528T318 466H456V376H155Z" />
<glyph unicode="&#xb3;" d="M298 364Q244 364 200 384T129 442L194 493Q213 468 236 457T286 446Q315 446 334 458T353 492Q353 519 328 531T250 543V605Q292 605 315 617T339 654Q339 674 323 684T280 695Q258 695 239 685T206 656L145 711Q177 746 213 762T299
778Q338 778 371 765T424 727T444 669Q444 638 429 617T378 579Q416 568 437 544T459 484Q459 448 437 421T378 379T298 364Z" />
<glyph unicode="&#xb4;" d="M294 561L222 633L375 815L475 717L294 561Z" />
<glyph unicode="&#xb5;" d="M64 -196V496H211V209Q211 155 228 134T278 113Q298 113 314 120T346 144T376 188V496H524Q522 438 520 373T516 249T514 148Q514 125 524 116T549 107Q554 107 557 107T567 109L585 0Q573 -5 555 -8T511 -12Q463 -12 434 11T392 81H389Q369
38 338 16T271 -7Q252 -7 234 -3T202 18Q203 -22 204 -57T207 -125T212 -196H64Z" />
<glyph unicode="&#xb6;" d="M288 197Q223 197 169 223T81 301T48 429Q48 513 80 562T167 631T286 652H328V197H288ZM380 -80V652H526V-80H380Z" />
<glyph unicode="&#xb7;" d="M300 236Q249 236 217 270T184 353Q184 402 216 436T300 471Q352 471 384 437T416 353Q416 304 384 270T300 236Z" />
<glyph unicode="&#xb8;" d="M198 -239L187 -180Q246 -177 268 -167T290 -136Q290 -120 275 -110T213 -94L263 11H349L319 -61Q356 -70 375 -87T395 -136Q395 -187 344 -211T198 -239Z" />
<glyph unicode="&#xb9;" d="M287 376V656H178V723Q226 730 254 738T310 766H395V376H287ZM166 376V466H500V376H166Z" />
<glyph unicode="&#xba;" d="M300 367Q256 367 218 387T156 446T133 539Q133 594 156 632T217 692T300 713Q344 713 382 692T444 633T467 539Q467 485 444 447T383 388T300 367ZM300 450Q333 450 347 474T361 539Q361 581 347 605T300 629Q268 629 254 605T239
539Q239 499 253 475T300 450Z" />
<glyph unicode="&#xbb;" d="M121 25L59 80L186 252L59 424L121 479L292 325V179L121 25ZM387 25L325 80L452 252L325 424L387 479L558 325V179L387 25Z" />
<glyph unicode="&#xbc;" d="M134 324V536H53V600Q92 605 113 613T158 636H241V324H134ZM92 28L17 101L203 274L254 227L92 28ZM397 377L346 425L508 624L583 551L397 377ZM448 0V215H542V0H448ZM288 61V112L384 324L460 295L383 127H593V61H288Z" />
<glyph unicode="&#xbd;" d="M134 324V536H53V600Q92 605 113 613T158 636H241V324H134ZM92 28L17 101L203 274L254 227L92 28ZM397 377L346 425L508 624L583 551L397 377ZM314 0V55Q355 82 388 108T440 157T460 197Q460 216 449 227T416 238Q403 238 388 229T361
203L299 259Q327 288 359 306T433 324Q492 324 527 295T563 215Q563 193 551 171T521 128T482 87H574V0H314Z" />
<glyph unicode="&#xbe;" d="M158 312Q127 312 92 320T22 354L63 420Q79 409 101 400T145 391Q163 391 175 398T187 420Q187 437 170 446T114 455V510Q143 510 159 517T175 542Q175 554 165 561T136 569Q120 569 103 562T70 544L28 606Q51 624 85 636T160 648Q209
648 244 624T279 559Q279 532 267 516T225 488Q261 479 276 460T291 412Q291 382 273 360T225 325T158 312ZM99 28L24 101L210 274L261 227L99 28ZM404 377L353 425L515 624L590 551L404 377ZM448 0V215H542V0H448ZM288 61V112L384 324L460 295L383 127H593V61H288Z"
/>
<glyph unicode="&#xbf;" d="M308 -186Q250 -186 204 -168T131 -114T103 -23Q103 17 119 44T159 94T206 136T243 181T254 241H382Q389 201 377 171T344 118T299 76T260 37T244 -4Q244 -35 265 -51T318 -67Q350 -67 373 -54T420 -21L502 -95Q466 -135 417 -160T308
-186ZM314 306Q271 306 243 334T214 406Q214 451 242 479T314 508Q357 508 385 480T414 406Q414 362 386 334T314 306Z" />
<glyph unicode="&#xc0;" d="M9 0L212 652H388L591 0H435L351 330Q339 379 325 434T299 540H295Q283 489 270 434T244 330L159 0H9ZM143 155V270H455V155H143ZM337 680L153 799L231 894L402 754L337 680Z" />
<glyph unicode="&#xc1;" d="M9 0L212 652H388L591 0H435L351 330Q339 379 325 434T299 540H295Q283 489 270 434T244 330L159 0H9ZM143 155V270H455V155H143ZM263 680L198 754L369 894L447 799L263 680Z" />
<glyph unicode="&#xc2;" d="M9 0L212 652H388L591 0H435L351 330Q339 379 325 434T299 540H295Q283 489 270 434T244 330L159 0H9ZM143 155V270H455V155H143ZM194 685L130 724L220 835H380L470 724L406 685L302 769H298L194 685Z" />
<glyph unicode="&#xc3;" d="M9 0L212 652H388L591 0H435L351 330Q339 379 325 434T299 540H295Q283 489 270 434T244 330L159 0H9ZM143 155V270H455V155H143ZM371 692Q345 692 325 701T288 721T259 741T234 750Q220 750 210 740T197 701L102 708Q107 784 141 818T229
852Q255 852 275 843T312 823T341 803T366 794Q380 794 390 805T403 843L498 836Q494 761 459 727T371 692Z" />
<glyph unicode="&#xc4;" d="M9 0L212 652H388L591 0H435L351 330Q339 379 325 434T299 540H295Q283 489 270 434T244 330L159 0H9ZM143 155V270H455V155H143ZM189 700Q157 700 137 721T116 774Q116 805 136 825T189 846Q221 846 242 826T263 774Q263 743 242 722T189
700ZM411 700Q379 700 358 721T337 774Q337 805 358 825T411 846Q443 846 463 826T484 774Q484 743 464 722T411 700Z" />
<glyph unicode="&#xc5;" d="M9 0L212 652H388L591 0H435L351 330Q339 379 325 434T299 540H295Q283 489 270 434T244 330L159 0H9ZM143 155V270H455V155H143ZM300 697Q249 697 218 724T186 796Q186 841 217 867T300 894Q350 894 382 868T414 796Q414 751 382 724T300
697ZM300 752Q317 752 329 763T342 796Q342 815 330 827T300 839Q282 839 270 827T258 796Q258 775 270 764T300 752Z" />
<glyph unicode="&#xc6;" d="M-3 0L215 652H586V528H441V399H559V275H441V124H595V0H311V541H308Q295 493 281 446T255 356L148 0H-3ZM132 149V263H368V149H132Z" />
<glyph unicode="&#xc7;" d="M356 -12Q295 -12 241 9T144 72T78 177T54 322Q54 430 95 506T207 623T365 664Q427 664 477 639T560 581L479 490Q456 512 429 524T365 537Q319 537 283 512T226 439T205 327Q205 260 226 213T284 140T371 115Q407 115 436 131T489
173L570 84Q530 37 476 13T356 -12ZM241 -239L230 -180Q289 -177 311 -167T333 -136Q333 -120 318 -110T256 -94L306 11H392L362 -61Q399 -70 418 -87T438 -136Q438 -187 387 -211T241 -239Z" />
<glyph unicode="&#xc8;" d="M92 0V652H524V528H240V397H481V274H240V124H534V0H92ZM360 680L176 799L254 894L425 754L360 680Z" />
<glyph unicode="&#xc9;" d="M92 0V652H524V528H240V397H481V274H240V124H534V0H92ZM286 680L221 754L392 894L470 799L286 680Z" />
<glyph unicode="&#xca;" d="M92 0V652H524V528H240V397H481V274H240V124H534V0H92ZM217 685L153 724L243 835H403L493 724L429 685L325 769H321L217 685Z" />
<glyph unicode="&#xcb;" d="M92 0V652H524V528H240V397H481V274H240V124H534V0H92ZM212 700Q180 700 160 721T139 774Q139 805 159 825T212 846Q244 846 265 826T286 774Q286 743 265 722T212 700ZM434 700Q402 700 381 721T360 774Q360 805 381 825T434 846Q466
846 486 826T507 774Q507 743 487 722T434 700Z" />
<glyph unicode="&#xcc;" d="M74 0V124H226V528H74V652H526V528H374V124H526V0H74ZM337 680L153 799L231 894L402 754L337 680Z" />
<glyph unicode="&#xcd;" d="M74 0V124H226V528H74V652H526V528H374V124H526V0H74ZM263 680L198 754L369 894L447 799L263 680Z" />
<glyph unicode="&#xce;" d="M74 0V124H226V528H74V652H526V528H374V124H526V0H74ZM194 685L130 724L220 835H380L470 724L406 685L302 769H298L194 685Z" />
<glyph unicode="&#xcf;" d="M74 0V124H226V528H74V652H526V528H374V124H526V0H74ZM189 700Q157 700 137 721T116 774Q116 805 136 825T189 846Q221 846 242 826T263 774Q263 743 242 722T189 700ZM411 700Q379 700 358 721T337 774Q337 805 358 825T411 846Q443
846 463 826T484 774Q484 743 464 722T411 700Z" />
<glyph unicode="&#xd0;" d="M70 0V298H0V367L70 373V652H251Q345 652 415 618T525 513T564 329Q564 217 525 144T418 36T259 0H70ZM218 119H242Q293 119 331 139T391 205T413 329Q413 407 391 451T331 514T242 533H218V373H326V298H218V119Z" />
<glyph unicode="&#xd1;" d="M66 0V652H217L354 328L410 184H414Q409 236 401 300T393 421V652H534V0H383L246 325L190 467H186Q191 414 199 352T207 231V0H66ZM381 692Q355 692 335 701T298 721T269 741T244 750Q230 750 220 740T207 701L112 708Q117 784 151
818T239 852Q265 852 285 843T322 823T351 803T376 794Q390 794 400 805T413 843L508 836Q504 761 469 727T381 692Z" />
<glyph unicode="&#xd2;" d="M300 -12Q222 -12 163 27T71 141T38 329Q38 438 71 512T163 625T300 664Q378 664 437 626T529 513T562 329Q562 217 529 142T437 27T300 -12ZM300 115Q334 115 359 139T397 211T411 329Q411 397 398 443T359 513T300 537Q266 537 241
513T203 443T189 329Q189 259 202 212T241 140T300 115ZM337 680L153 799L231 894L402 754L337 680Z" />
<glyph unicode="&#xd3;" d="M300 -12Q222 -12 163 27T71 141T38 329Q38 438 71 512T163 625T300 664Q378 664 437 626T529 513T562 329Q562 217 529 142T437 27T300 -12ZM300 115Q334 115 359 139T397 211T411 329Q411 397 398 443T359 513T300 537Q266 537 241
513T203 443T189 329Q189 259 202 212T241 140T300 115ZM263 680L198 754L369 894L447 799L263 680Z" />
<glyph unicode="&#xd4;" d="M300 -12Q222 -12 163 27T71 141T38 329Q38 438 71 512T163 625T300 664Q378 664 437 626T529 513T562 329Q562 217 529 142T437 27T300 -12ZM300 115Q334 115 359 139T397 211T411 329Q411 397 398 443T359 513T300 537Q266 537 241
513T203 443T189 329Q189 259 202 212T241 140T300 115ZM194 685L130 724L220 835H380L470 724L406 685L302 769H298L194 685Z" />
<glyph unicode="&#xd5;" d="M300 -12Q222 -12 163 27T71 141T38 329Q38 438 71 512T163 625T300 664Q378 664 437 626T529 513T562 329Q562 217 529 142T437 27T300 -12ZM300 115Q334 115 359 139T397 211T411 329Q411 397 398 443T359 513T300 537Q266 537 241
513T203 443T189 329Q189 259 202 212T241 140T300 115ZM371 692Q345 692 325 701T288 721T259 741T234 750Q220 750 210 740T197 701L102 708Q107 784 141 818T229 852Q255 852 275 843T312 823T341 803T366 794Q380 794 390 805T403 843L498 836Q494 761 459
727T371 692Z" />
<glyph unicode="&#xd6;" d="M300 -12Q222 -12 163 27T71 141T38 329Q38 438 71 512T163 625T300 664Q378 664 437 626T529 513T562 329Q562 217 529 142T437 27T300 -12ZM300 115Q334 115 359 139T397 211T411 329Q411 397 398 443T359 513T300 537Q266 537 241
513T203 443T189 329Q189 259 202 212T241 140T300 115ZM189 700Q157 700 137 721T116 774Q116 805 136 825T189 846Q221 846 242 826T263 774Q263 743 242 722T189 700ZM411 700Q379 700 358 721T337 774Q337 805 358 825T411 846Q443 846 463 826T484 774Q484
743 464 722T411 700Z" />
<glyph unicode="&#xd7;" d="M157 112L84 186L226 329L84 473L157 547L300 403L443 547L516 473L374 329L516 186L443 112L300 256L157 112Z" />
<glyph unicode="&#xd8;" d="M19 10L500 694L580 642L99 -42L19 10ZM300 -12Q222 -12 163 27T71 141T38 329Q38 438 71 512T163 625T300 664Q378 664 437 626T529 513T562 329Q562 217 529 142T437 27T300 -12ZM300 115Q334 115 359 139T397 211T411 329Q411 397
398 443T359 513T300 537Q266 537 241 513T203 443T189 329Q189 259 202 212T241 140T300 115Z" />
<glyph unicode="&#xd9;" d="M302 -12Q242 -12 198 5T124 56T79 138T64 251V652H211V236Q211 197 221 170T251 129T302 115Q333 115 353 129T384 170T394 236V652H536V251Q536 187 522 139T479 57T405 6T302 -12ZM337 680L153 799L231 894L402 754L337 680Z" />
<glyph unicode="&#xda;" d="M302 -12Q242 -12 198 5T124 56T79 138T64 251V652H211V236Q211 197 221 170T251 129T302 115Q333 115 353 129T384 170T394 236V652H536V251Q536 187 522 139T479 57T405 6T302 -12ZM263 680L198 754L369 894L447 799L263 680Z" />
<glyph unicode="&#xdb;" d="M302 -12Q242 -12 198 5T124 56T79 138T64 251V652H211V236Q211 197 221 170T251 129T302 115Q333 115 353 129T384 170T394 236V652H536V251Q536 187 522 139T479 57T405 6T302 -12ZM194 685L130 724L220 835H380L470 724L406 685L302
769H298L194 685Z" />
<glyph unicode="&#xdc;" d="M302 -12Q242 -12 198 5T124 56T79 138T64 251V652H211V236Q211 197 221 170T251 129T302 115Q333 115 353 129T384 170T394 236V652H536V251Q536 187 522 139T479 57T405 6T302 -12ZM189 700Q157 700 137 721T116 774Q116 805 136
825T189 846Q221 846 242 826T263 774Q263 743 242 722T189 700ZM411 700Q379 700 358 721T337 774Q337 805 358 825T411 846Q443 846 463 826T484 774Q484 743 464 722T411 700Z" />
<glyph unicode="&#xdd;" d="M226 0V220L16 652H174L240 495Q255 458 269 422T299 346H303Q319 385 334 421T364 495L430 652H584L374 220V0H226ZM263 680L198 754L369 894L447 799L263 680Z" />
<glyph unicode="&#xde;" d="M73 0V652H220V553H311Q382 553 439 534T531 469T566 344Q566 267 531 219T438 147T311 123H220V0H73ZM220 240H302Q363 240 392 266T421 344Q421 395 391 415T302 436H220V240Z" />
<glyph unicode="&#xdf;" d="M397 -12Q356 -12 324 -2T258 25L307 125Q330 110 351 104T392 97Q412 97 423 109T435 140Q435 159 424 173T396 199T358 224T320 254T291 294T280 350Q280 380 289 402T310 444T331 485T340 536Q340 562 326 579T287 597Q247 597 228
567T208 486V0H61V495Q61 557 86 606T161 684T288 713Q352 713 394 689T456 626T477 544Q477 509 468 484T447 439T425 404T416 368Q416 352 427 339T455 315T493 290T531 259T560 214T571 152Q571 106 552 69T493 10T397 -12Z" />
<glyph unicode="&#xe0;" d="M224 -12Q174 -12 138 8T81 62T61 138Q61 221 136 265T388 319Q385 342 373 358T339 382T282 391Q258 391 234 386T185 370T131 345L79 441Q113 461 150 476T228 499T311 508Q381 508 431 484T508 410T535 284V0H415L404 56H400Q363
28 318 8T224 -12ZM271 102Q304 102 333 115T388 149V231Q315 227 275 216T218 188T202 149Q202 134 210 123T234 107T271 102ZM326 561L145 717L245 815L398 633L326 561Z" />
<glyph unicode="&#xe1;" d="M224 -12Q174 -12 138 8T81 62T61 138Q61 221 136 265T388 319Q385 342 373 358T339 382T282 391Q258 391 234 386T185 370T131 345L79 441Q113 461 150 476T228 499T311 508Q381 508 431 484T508 410T535 284V0H415L404 56H400Q363
28 318 8T224 -12ZM271 102Q304 102 333 115T388 149V231Q315 227 275 216T218 188T202 149Q202 134 210 123T234 107T271 102ZM314 561L242 633L395 815L495 717L314 561Z" />
<glyph unicode="&#xe2;" d="M224 -12Q174 -12 138 8T81 62T61 138Q61 221 136 265T388 319Q385 342 373 358T339 382T282 391Q258 391 234 386T185 370T131 345L79 441Q113 461 150 476T228 499T311 508Q381 508 431 484T508 410T535 284V0H415L404 56H400Q363
28 318 8T224 -12ZM271 102Q304 102 333 115T388 149V231Q315 227 275 216T218 188T202 149Q202 134 210 123T234 107T271 102ZM193 561L137 613L245 744H395L503 613L447 561L322 653H318L193 561Z" />
<glyph unicode="&#xe3;" d="M224 -12Q174 -12 138 8T81 62T61 138Q61 221 136 265T388 319Q385 342 373 358T339 382T282 391Q258 391 234 386T185 370T131 345L79 441Q113 461 150 476T228 499T311 508Q381 508 431 484T508 410T535 284V0H415L404 56H400Q363
28 318 8T224 -12ZM271 102Q304 102 333 115T388 149V231Q315 227 275 216T218 188T202 149Q202 134 210 123T234 107T271 102ZM386 573Q363 573 344 583T310 605T282 627T257 637Q242 637 234 624T222 582L130 587Q132 639 146 672T188 722T254 739Q278 739 296
730T330 708T358 685T383 675Q398 675 406 688T418 730L510 725Q508 674 494 640T452 590T386 573Z" />
<glyph unicode="&#xe4;" d="M224 -12Q174 -12 138 8T81 62T61 138Q61 221 136 265T388 319Q385 342 373 358T339 382T282 391Q258 391 234 386T185 370T131 345L79 441Q113 461 150 476T228 499T311 508Q381 508 431 484T508 410T535 284V0H415L404 56H400Q363
28 318 8T224 -12ZM271 102Q304 102 333 115T388 149V231Q315 227 275 216T218 188T202 149Q202 134 210 123T234 107T271 102ZM209 571Q174 571 152 594T129 651Q129 685 151 708T209 732Q245 732 267 709T289 651Q289 618 267 595T209 571ZM431 571Q395 571 373
594T351 651Q351 685 373 708T431 732Q466 732 488 709T511 651Q511 618 489 595T431 571Z" />
<glyph unicode="&#xe5;" d="M224 -12Q174 -12 138 8T81 62T61 138Q61 221 136 265T388 319Q385 342 373 358T339 382T282 391Q258 391 234 386T185 370T131 345L79 441Q113 461 150 476T228 499T311 508Q381 508 431 484T508 410T535 284V0H415L404 56H400Q363
28 318 8T224 -12ZM271 102Q304 102 333 115T388 149V231Q315 227 275 216T218 188T202 149Q202 134 210 123T234 107T271 102ZM320 568Q255 568 222 598T188 672Q188 715 221 745T320 775Q386 775 419 745T452 672Q452 629 419 599T320 568ZM320 623Q338 623 350
637T363 672Q363 693 351 706T320 720Q302 720 290 707T277 672Q277 651 289 637T320 623Z" />
<glyph unicode="&#xe6;" d="M149 -12Q90 -12 53 28T16 130Q16 185 43 223T126 284T267 317V230Q221 225 195 214T158 185T147 148Q147 125 160 114T194 102Q210 102 229 112T274 154L315 88Q271 34 231 11T149 -12ZM445 -12Q381 -12 336 20T267 106T243 222V292Q243
352 225 371T181 391Q154 391 131 382T81 357L29 453Q70 478 110 493T191 508Q236 508 268 486T323 406H293Q323 463 359 485T436 508Q488 508 523 476T575 389T593 269Q593 249 591 232T587 204H328V297H502L478 277Q478 341 466 368T424 396Q406 396 390 382T363
336T352 248Q352 200 365 168T400 120T451 103Q471 103 489 110T527 130L578 35Q549 12 513 0T445 -12Z" />
<glyph unicode="&#xe7;" d="M343 -12Q265 -12 203 18T104 107T67 248Q67 330 107 388T212 477T354 508Q413 508 461 490T540 441L472 350Q443 370 417 379T362 389Q320 389 287 372T236 323T218 248Q218 205 235 173T284 124T357 107Q396 107 428 121T488 154L547
61Q503 24 449 6T343 -12ZM240 -239L229 -180Q288 -177 310 -167T332 -136Q332 -120 317 -110T255 -94L305 11H391L361 -61Q398 -70 417 -87T437 -136Q437 -187 386 -211T240 -239Z" />
<glyph unicode="&#xe8;" d="M330 -12Q253 -12 191 18T92 107T55 248Q55 329 92 387T188 477T313 508Q390 508 442 477T520 392T547 270Q547 250 545 232T540 204H164V303H441L418 275Q418 335 393 365T318 396Q282 396 255 380T213 331T198 248Q198 197 216 165T268
116T350 100Q384 100 414 109T478 135L527 46Q484 19 432 4T330 -12ZM318 561L137 717L237 815L390 633L318 561Z" />
<glyph unicode="&#xe9;" d="M330 -12Q253 -12 191 18T92 107T55 248Q55 329 92 387T188 477T313 508Q390 508 442 477T520 392T547 270Q547 250 545 232T540 204H164V303H441L418 275Q418 335 393 365T318 396Q282 396 255 380T213 331T198 248Q198 197 216 165T268
116T350 100Q384 100 414 109T478 135L527 46Q484 19 432 4T330 -12ZM306 561L234 633L387 815L487 717L306 561Z" />
<glyph unicode="&#xea;" d="M330 -12Q253 -12 191 18T92 107T55 248Q55 329 92 387T188 477T313 508Q390 508 442 477T520 392T547 270Q547 250 545 232T540 204H164V303H441L418 275Q418 335 393 365T318 396Q282 396 255 380T213 331T198 248Q198 197 216 165T268
116T350 100Q384 100 414 109T478 135L527 46Q484 19 432 4T330 -12ZM185 561L129 613L237 744H387L495 613L439 561L314 653H310L185 561Z" />
<glyph unicode="&#xeb;" d="M330 -12Q253 -12 191 18T92 107T55 248Q55 329 92 387T188 477T313 508Q390 508 442 477T520 392T547 270Q547 250 545 232T540 204H164V303H441L418 275Q418 335 393 365T318 396Q282 396 255 380T213 331T198 248Q198 197 216 165T268
116T350 100Q384 100 414 109T478 135L527 46Q484 19 432 4T330 -12ZM201 571Q166 571 144 594T121 651Q121 685 143 708T201 732Q237 732 259 709T281 651Q281 618 259 595T201 571ZM423 571Q387 571 365 594T343 651Q343 685 365 708T423 732Q458 732 480 709T503
651Q503 618 481 595T423 571Z" />
<glyph unicode="&#xec;" d="M278 0V381H78V496H425V0H278ZM351 561L170 717L270 815L423 633L351 561Z" />
<glyph unicode="&#xed;" d="M278 0V381H78V496H425V0H278ZM339 561L267 633L420 815L520 717L339 561Z" />
<glyph unicode="&#xee;" d="M278 0V381H78V496H425V0H278ZM218 561L162 613L270 744H420L528 613L472 561L347 653H343L218 561Z" />
<glyph unicode="&#xef;" d="M278 0V381H78V496H425V0H278ZM234 571Q199 571 177 594T154 651Q154 685 176 708T234 732Q270 732 292 709T314 651Q314 618 292 595T234 571ZM456 571Q420 571 398 594T376 651Q376 685 398 708T456 732Q491 732 513 709T536 651Q536
618 514 595T456 571Z" />
<glyph unicode="&#xf0;" d="M295 -12Q228 -12 172 17T81 100T47 228Q47 299 78 350T159 428T268 455Q314 455 355 433T416 362L418 285Q391 318 362 332T298 346Q262 346 236 333T195 294T181 228Q181 189 197 162T240 121T300 107Q334 107 359 124T399 174T413
258Q413 335 396 393T345 497T259 580T135 651L199 740Q269 708 332 666T445 568T522 437T550 266Q550 186 520 123T433 24T295 -12ZM148 473L108 541L480 728L520 660L148 473Z" />
<glyph unicode="&#xf1;" d="M72 0V496H192L203 430H207Q239 462 280 485T378 508Q462 508 501 454T540 306V0H393V287Q393 337 377 360T320 383Q290 383 268 370T219 331V0H72ZM381 573Q358 573 339 583T305 605T277 627T252 637Q237 637 229 624T217 582L125
587Q127 639 141 672T183 722T249 739Q273 739 291 730T325 708T353 685T378 675Q393 675 401 688T413 730L505 725Q503 674 489 640T447 590T381 573Z" />
<glyph unicode="&#xf2;" d="M300 -12Q235 -12 177 18T83 107T47 248Q47 330 83 388T177 477T300 508Q365 508 423 478T517 389T553 248Q553 166 517 108T423 19T300 -12ZM300 107Q334 107 356 124T390 173T402 248Q402 291 391 323T357 372T300 389Q266 389 244
372T210 323T198 248Q198 205 209 173T243 124T300 107ZM306 561L125 717L225 815L378 633L306 561Z" />
<glyph unicode="&#xf3;" d="M300 -12Q235 -12 177 18T83 107T47 248Q47 330 83 388T177 477T300 508Q365 508 423 478T517 389T553 248Q553 166 517 108T423 19T300 -12ZM300 107Q334 107 356 124T390 173T402 248Q402 291 391 323T357 372T300 389Q266 389 244
372T210 323T198 248Q198 205 209 173T243 124T300 107ZM294 561L222 633L375 815L475 717L294 561Z" />
<glyph unicode="&#xf4;" d="M300 -12Q235 -12 177 18T83 107T47 248Q47 330 83 388T177 477T300 508Q365 508 423 478T517 389T553 248Q553 166 517 108T423 19T300 -12ZM300 107Q334 107 356 124T390 173T402 248Q402 291 391 323T357 372T300 389Q266 389 244
372T210 323T198 248Q198 205 209 173T243 124T300 107ZM173 561L117 613L225 744H375L483 613L427 561L302 653H298L173 561Z" />
<glyph unicode="&#xf5;" d="M300 -12Q235 -12 177 18T83 107T47 248Q47 330 83 388T177 477T300 508Q365 508 423 478T517 389T553 248Q553 166 517 108T423 19T300 -12ZM300 107Q334 107 356 124T390 173T402 248Q402 291 391 323T357 372T300 389Q266 389 244
372T210 323T198 248Q198 205 209 173T243 124T300 107ZM366 573Q343 573 324 583T290 605T262 627T237 637Q222 637 214 624T202 582L110 587Q112 639 126 672T168 722T234 739Q258 739 276 730T310 708T338 685T363 675Q378 675 386 688T398 730L490 725Q488
674 474 640T432 590T366 573Z" />
<glyph unicode="&#xf6;" d="M300 -12Q235 -12 177 18T83 107T47 248Q47 330 83 388T177 477T300 508Q365 508 423 478T517 389T553 248Q553 166 517 108T423 19T300 -12ZM300 107Q334 107 356 124T390 173T402 248Q402 291 391 323T357 372T300 389Q266 389 244
372T210 323T198 248Q198 205 209 173T243 124T300 107ZM189 571Q154 571 132 594T109 651Q109 685 131 708T189 732Q225 732 247 709T269 651Q269 618 247 595T189 571ZM411 571Q375 571 353 594T331 651Q331 685 353 708T411 732Q446 732 468 709T491 651Q491
618 469 595T411 571Z" />
<glyph unicode="&#xf7;" d="M300 433Q266 433 243 455T219 510Q219 544 242 565T300 587Q335 587 358 566T381 510Q381 477 358 455T300 433ZM300 73Q266 73 243 95T219 150Q219 184 242 205T300 227Q335 227 358 206T381 150Q381 117 358 95T300 73ZM70 278V382H530V278H70Z"
/>
<glyph unicode="&#xf8;" d="M300 -12Q235 -12 177 18T83 107T47 248Q47 330 83 388T177 477T300 508Q365 508 423 478T517 389T553 248Q553 166 517 108T423 19T300 -12ZM300 102Q334 102 356 120T390 172T402 248Q402 291 391 324T357 375T300 394Q266 394 244
376T210 324T198 248Q198 205 209 172T243 121T300 102ZM118 -27L61 19L482 525L539 478L118 -27Z" />
<glyph unicode="&#xf9;" d="M223 -12Q138 -12 100 42T62 190V496H209V209Q209 159 224 136T281 113Q309 113 331 125T378 170V496H525V0H405L394 71H390Q357 34 317 11T223 -12ZM558 561L377 717L477 815L630 633L558 561Z" />
<glyph unicode="&#xfa;" d="M223 -12Q138 -12 100 42T62 190V496H209V209Q209 159 224 136T281 113Q309 113 331 125T378 170V496H525V0H405L394 71H390Q357 34 317 11T223 -12ZM546 561L474 633L627 815L727 717L546 561Z" />
<glyph unicode="&#xfb;" d="M223 -12Q138 -12 100 42T62 190V496H209V209Q209 159 224 136T281 113Q309 113 331 125T378 170V496H525V0H405L394 71H390Q357 34 317 11T223 -12ZM425 561L369 613L477 744H627L735 613L679 561L554 653H550L425 561Z" />
<glyph unicode="&#xfc;" d="M223 -12Q138 -12 100 42T62 190V496H209V209Q209 159 224 136T281 113Q309 113 331 125T378 170V496H525V0H405L394 71H390Q357 34 317 11T223 -12ZM441 571Q406 571 384 594T361 651Q361 685 383 708T441 732Q477 732 499 709T521
651Q521 618 499 595T441 571ZM663 571Q627 571 605 594T583 651Q583 685 605 708T663 732Q698 732 720 709T743 651Q743 618 721 595T663 571Z" />
<glyph unicode="&#xfd;" d="M143 -194Q121 -194 102 -191T67 -184L93 -72Q103 -75 113 -76T132 -78Q175 -78 199 -60T236 -13L246 13L31 496H177L260 283Q274 248 286 211T310 134H314Q324 171 336 209T359 283L432 496H571L375 -5Q352 -67 322 -109T249 -172T143
-194ZM302 561L230 633L383 815L483 717L302 561Z" />
<glyph unicode="&#xfe;" d="M72 -184V701H219V528L214 451H217Q246 478 281 493T354 508Q415 508 460 477T529 389T553 256Q553 171 522 111T442 20T339 -12Q302 -12 272 3T217 42H214L219 -39V-184H72ZM304 108Q331 108 353 123T388 170T402 254Q402 299 393
328T363 373T310 388Q288 388 265 378T219 342V141Q239 124 262 116T304 108Z" />
<glyph unicode="&#xff;" d="M143 -194Q121 -194 102 -191T67 -184L93 -72Q103 -75 113 -76T132 -78Q175 -78 199 -60T236 -13L246 13L31 496H177L260 283Q274 248 286 211T310 134H314Q324 171 336 209T359 283L432 496H571L375 -5Q352 -67 322 -109T249 -172T143
-194ZM197 571Q162 571 140 594T117 651Q117 685 139 708T197 732Q233 732 255 709T277 651Q277 618 255 595T197 571ZM419 571Q383 571 361 594T339 651Q339 685 361 708T419 732Q454 732 476 709T499 651Q499 618 477 595T419 571Z" />
<glyph unicode="&#x2013;" d="M80 199V310H520V199H80Z" />
<glyph unicode="&#x2014;" d="M0 199V310H600V199H0Z" />
<glyph unicode="&#x2018;" d="M301 290Q246 290 215 332T184 450Q184 531 227 594T359 697L397 619Q342 594 314 557T285 467L291 372L232 453Q246 465 266 473T306 482Q346 482 371 457T397 391Q397 345 370 318T301 290Z" />
<glyph unicode="&#x2019;" d="M241 290L202 368Q258 393 286 430T314 520L308 615L367 534Q353 522 333 513T294 504Q254 504 228 529T202 596Q202 641 229 669T298 697Q354 697 384 655T415 537Q415 455 372 393T241 290Z" />
<glyph unicode="&#x201a;" d="M241 -231L202 -153Q258 -128 286 -91T314 -1L308 94L367 13Q353 1 333 -8T294 -17Q254 -17 228 8T202 75Q202 120 229 148T298 176Q354 176 384 134T415 16Q415 -66 372 -128T241 -231Z" />
<glyph unicode="&#x201c;" d="M168 290Q113 290 82 332T51 450Q51 531 94 594T226 697L264 619Q209 594 181 557T152 467L158 372L99 453Q113 465 133 473T173 482Q213 482 238 457T264 391Q264 345 237 318T168 290ZM434 290Q379 290 348 332T317 450Q317 531
360 594T492 697L530 619Q475 594 447 557T418 467L424 372L365 453Q379 465 399 473T439 482Q479 482 504 457T530 391Q530 345 503 318T434 290Z" />
<glyph unicode="&#x201d;" d="M108 290L69 368Q125 393 153 430T181 520L175 615L234 534Q220 522 200 513T161 504Q121 504 95 529T69 596Q69 641 96 669T165 697Q221 697 251 655T282 537Q282 455 239 393T108 290ZM374 290L335 368Q391 393 419 430T447 520L441
615L500 534Q486 522 466 513T427 504Q387 504 361 529T335 596Q335 641 362 669T431 697Q487 697 517 655T548 537Q548 455 505 393T374 290Z" />
<glyph unicode="&#x201e;" d="M108 -231L69 -153Q125 -128 153 -91T181 -1L175 94L234 13Q220 1 200 -8T161 -17Q121 -17 95 8T69 75Q69 120 96 148T165 176Q221 176 251 134T282 16Q282 -66 239 -128T108 -231ZM374 -231L335 -153Q391 -128 419 -91T447 -1L441
94L500 13Q486 1 466 -8T427 -17Q387 -17 361 8T335 75Q335 120 362 148T431 176Q487 176 517 134T548 16Q548 -66 505 -128T374 -231Z" />
<glyph unicode="&#x2022;" d="M300 101Q254 101 217 122T158 179T136 262Q136 308 157 344T216 402T300 423Q346 423 383 402T442 345T464 262Q464 216 443 180T384 122T300 101Z" />
<glyph unicode="&#x2039;" d="M346 25L175 179V325L346 479L408 424L281 252L408 80L346 25Z" />
<glyph unicode="&#x203a;" d="M254 25L192 80L319 252L192 424L254 479L425 325V179L254 25Z" />
</font>
</defs>
</svg>
