<?xml version="1.0" standalone="no"?>
<!DOCTYPE svg PUBLIC "-//W3C//DTD SVG 1.1//EN" "http://www.w3.org/Graphics/SVG/1.1/DTD/svg11.dtd" >
<svg xmlns="http://www.w3.org/2000/svg" xmlns:xlink="http://www.w3.org/1999/xlink" version="1.1">
<metadata>
Created by FontForge 20160407 at Mon Jul 25 12:05:55 2016
 By Jimmy Warting
Copyright (c) 2002 The Hoefler Type Foundry, Inc., dba Hoefler &#38; Frere-Jones. All Rights Reserved.
</metadata>
<defs>
<font id="GothamPro-MediumItalic" horiz-adv-x="500" >
  <font-face 
    font-family="Gotham Pro"
    font-weight="500"
    font-style="italic"
    font-stretch="normal"
    units-per-em="1000"
    panose-1="2 0 6 3 4 0 0 9 0 4"
    ascent="800"
    descent="-200"
    x-height="528"
    cap-height="700"
    bbox="-131 -200 1221 922"
    underline-thickness="20"
    underline-position="-133"
    slope="-12"
    stemh="106"
    stemv="127"
    unicode-range="U+0020-FB04"
  />
<missing-glyph 
d="M0 0v700h500v-700h-500zM81 49h340l-171 255zM50 95l170 254l-170 256v-510zM451 95v510l-172 -256zM250 395l171 255h-340z" />
    <glyph glyph-name="fi" unicode="fi" horiz-adv-x="683" 
d="M567 609l32 115h130l-31 -115h-131zM33 0l114 424h-67l28 104h67l10 43c30 112 99 164 201 164c42 0 78 -7 104 -18l-27 -101c-24 10 -49 16 -74 16c-44 0 -73 -23 -87 -74l-8 -30h146l-28 -104h-144l-114 -424h-121zM408 0l142 528h121l-142 -528h-121z" />
    <glyph glyph-name="fl" unicode="fl" horiz-adv-x="683" 
d="M33 0l114 424h-67l28 104h67l10 43c30 112 99 164 201 164c42 0 78 -7 104 -18l-27 -101c-24 10 -49 16 -74 16c-44 0 -73 -23 -87 -74l-8 -30h146l-28 -104h-144l-114 -424h-121zM408 0l196 730h121l-196 -730h-121z" />
    <glyph glyph-name="ffi" unicode="ffi" horiz-adv-x="1079" 
d="M964 609l31 115h130l-31 -115h-130zM429 0l114 424h-67l28 104h67l11 43c28 112 98 164 200 164c42 0 78 -7 104 -18l-27 -101c-24 10 -49 16 -74 16c-44 0 -73 -24 -87 -74l-8 -30h146l-28 -104h-144l-114 -424h-121zM33 0l114 424h-67l28 104h67l10 43
c30 112 99 164 201 164c42 0 78 -7 104 -18l-27 -101c-24 10 -49 16 -74 16c-44 0 -73 -23 -87 -74l-8 -30h146l-28 -104h-144l-114 -424h-121zM804 0l142 528h121l-142 -528h-121z" />
    <glyph glyph-name="ffl" unicode="ffl" horiz-adv-x="1079" 
d="M429 0l114 424h-67l28 104h67l11 43c28 112 98 164 200 164c42 0 78 -7 104 -18l-27 -101c-24 10 -49 16 -74 16c-44 0 -73 -24 -87 -74l-8 -30h146l-28 -104h-144l-114 -424h-121zM33 0l114 424h-67l28 104h67l10 43c30 112 99 164 201 164c42 0 78 -7 104 -18l-27 -101
c-24 10 -49 16 -74 16c-44 0 -73 -23 -87 -74l-8 -30h146l-28 -104h-144l-114 -424h-121zM804 0l196 730h121l-196 -730h-121z" />
    <glyph glyph-name=".notdef" 
d="M0 0v700h500v-700h-500zM81 49h340l-171 255zM50 95l170 254l-170 256v-510zM451 95v510l-172 -256zM250 395l171 255h-340z" />
    <glyph glyph-name="space" unicode=" " horiz-adv-x="300" 
 />
    <glyph glyph-name="exclam" unicode="!" horiz-adv-x="303" 
d="M106 221l81 444l10 35h142l-10 -35l-156 -444h-67zM14 0l36 137h134l-37 -137h-133z" />
    <glyph glyph-name="quotedbl" unicode="&#x22;" horiz-adv-x="493" 
d="M323 401l87 299h138l-2 -5l-159 -294h-64zM100 401l86 299h138l-1 -5l-159 -294h-64z" />
    <glyph glyph-name="numbersign" unicode="#" horiz-adv-x="687" 
d="M55 0l56 161h-93l28 104h102l60 174h-105l28 104h113l55 157h107l-55 -157h164l55 157h106l-54 -157h93l-27 -104h-103l-60 -174h105l-27 -104h-115l-56 -161h-106l56 161h-164l-56 -161h-107zM255 265h163l61 174h-164z" />
    <glyph glyph-name="dollar" unicode="$" horiz-adv-x="631" 
d="M170 -98l31 106c-85 17 -156 57 -205 119l90 76c40 -46 90 -77 150 -90l56 195c-104 39 -169 82 -169 182c0 120 114 210 262 210c7 0 13 0 19 -1l18 59h87l-20 -70c66 -16 118 -48 159 -90l-83 -82c-33 31 -69 54 -111 66l-53 -186c103 -38 165 -86 165 -183
c0 -126 -118 -213 -274 -213h-6l-29 -98h-87zM328 424l48 169c-80 2 -127 -40 -127 -90c0 -35 21 -55 79 -79zM314 106c76 3 125 38 125 95c0 34 -19 56 -74 80z" />
    <glyph glyph-name="percent" unicode="%" horiz-adv-x="862" 
d="M236 346c-90 0 -149 63 -149 151c0 105 80 211 193 211c89 0 149 -63 149 -151c0 -105 -80 -211 -193 -211zM62 0l675 700h109l-676 -700h-108zM628 -8c-90 0 -149 64 -149 151c0 106 80 211 193 211c89 0 149 -63 149 -150c0 -106 -80 -212 -193 -212zM241 420
c62 0 104 71 104 133c0 50 -26 81 -71 81c-61 0 -104 -71 -104 -133c0 -50 27 -81 71 -81zM633 66c62 0 105 72 105 133c0 50 -27 82 -71 82c-62 0 -105 -72 -105 -134c0 -49 27 -81 71 -81z" />
    <glyph glyph-name="ampersand" unicode="&#x26;" horiz-adv-x="694" 
d="M532 -14l-65 90c-69 -55 -140 -86 -226 -86c-124 0 -216 68 -216 184c0 93 65 179 213 224c-25 42 -40 85 -40 125c0 102 85 189 211 189c110 0 184 -67 184 -161c0 -70 -45 -144 -200 -193l98 -135c33 36 64 80 94 129l77 -52c-37 -58 -75 -109 -114 -152l75 -104z
M341 428c111 36 141 72 141 116c0 37 -28 71 -79 71c-56 0 -96 -43 -96 -93c0 -27 9 -55 34 -94zM254 92c53 0 105 21 157 62l-123 171c-102 -32 -145 -87 -145 -143c0 -53 40 -90 111 -90z" />
    <glyph glyph-name="quotesingle" unicode="'" horiz-adv-x="269" 
d="M100 401l86 299h138l-1 -5l-159 -294h-64z" />
    <glyph glyph-name="parenleft" unicode="(" horiz-adv-x="440" 
d="M251 -142c-109 90 -181 208 -181 354c0 211 137 399 396 503l44 -90c-216 -97 -316 -255 -316 -409c0 -115 58 -205 131 -282z" />
    <glyph glyph-name="parenright" unicode=")" horiz-adv-x="440" 
d="M-13 -139l-44 90c216 97 316 255 316 409c0 115 -58 205 -132 281l75 77c109 -90 181 -208 181 -354c0 -211 -137 -400 -396 -503z" />
    <glyph glyph-name="asterisk" unicode="*" horiz-adv-x="430" 
d="M276 379l-68 17l45 115l-116 -45l-19 69l124 18l-97 78l50 50l77 -97l19 121l67 -17l-45 -115l116 45l19 -68l-124 -19l98 -77l-51 -51l-77 97z" />
    <glyph glyph-name="plus" unicode="+" horiz-adv-x="646" 
d="M224 106l51 191h-192l30 110h192l50 191h115l-51 -191h192l-30 -110h-192l-51 -191h-114z" />
    <glyph glyph-name="comma" unicode="," horiz-adv-x="293" 
d="M-45 -145l-9 51c72 10 105 43 115 94h-52l37 137h133l-31 -116c-30 -114 -90 -158 -193 -166z" />
    <glyph glyph-name="hyphen" unicode="-" horiz-adv-x="411" 
d="M53 247l32 119h296l-32 -119h-296z" />
    <glyph glyph-name="period" unicode="." horiz-adv-x="293" 
d="M9 0l37 137h133l-37 -137h-133z" />
    <glyph glyph-name="slash" unicode="/" horiz-adv-x="521" 
d="M-131 -128l692 926h116l-692 -926h-116z" />
    <glyph glyph-name="zero" unicode="0" horiz-adv-x="724" 
d="M330 -12c-161 0 -262 114 -262 282c0 211 143 442 371 442c160 0 261 -114 261 -282c0 -211 -142 -442 -370 -442zM339 99c137 0 234 179 234 331c0 105 -53 171 -144 171c-137 0 -234 -179 -234 -331c0 -105 53 -171 144 -171z" />
    <glyph glyph-name="one" unicode="1" horiz-adv-x="404" 
d="M94 0l154 573l-133 -34l-2 106l207 60h85l-189 -705h-122z" />
    <glyph glyph-name="two" unicode="2" horiz-adv-x="606" 
d="M-27 0l27 100l373 268c72 52 108 94 108 145c0 53 -40 86 -106 86c-68 0 -124 -38 -177 -91l-77 79c66 72 151 123 259 123c137 0 228 -76 228 -185c0 -85 -44 -147 -159 -229l-260 -188h327l-29 -108h-514z" />
    <glyph glyph-name="three" unicode="3" horiz-adv-x="605" 
d="M244 -12c-127 0 -209 54 -253 134l93 66c37 -56 85 -89 166 -89c90 0 157 54 157 121c0 65 -60 98 -155 98h-38l-8 75l238 200h-298l29 107h466l-25 -92l-250 -204c95 -16 166 -69 166 -173c0 -139 -127 -243 -288 -243z" />
    <glyph glyph-name="four" unicode="4" horiz-adv-x="655" 
d="M331 0l42 157h-340l-13 91l498 457h119l-120 -447h100l-27 -101h-100l-42 -157h-117zM177 258h223l75 279z" />
    <glyph glyph-name="five" unicode="5" horiz-adv-x="607" 
d="M251 -11c-107 0 -205 55 -252 125l88 71c46 -55 101 -86 174 -86c99 0 167 64 167 136c0 63 -51 108 -142 108c-35 0 -79 -12 -114 -29l-64 52l109 334h411l-31 -109h-299l-53 -161c25 9 61 16 90 16c130 0 220 -78 220 -199c0 -137 -120 -258 -304 -258z" />
    <glyph glyph-name="six" unicode="6" horiz-adv-x="642" 
d="M314 -12c-72 0 -136 23 -177 64c-46 46 -71 107 -71 196c0 139 51 274 138 361c64 63 147 103 245 103c90 0 162 -34 212 -85l-73 -87c-38 36 -86 61 -149 61c-59 0 -107 -20 -149 -63c-40 -40 -75 -102 -87 -166c33 40 101 77 178 77c124 0 216 -78 216 -198
c0 -137 -123 -263 -283 -263zM315 93c93 0 157 70 157 144c0 62 -46 111 -125 111c-97 0 -161 -67 -161 -140c0 -33 12 -60 32 -80c24 -23 57 -35 97 -35z" />
    <glyph glyph-name="seven" unicode="7" horiz-adv-x="600" 
d="M30 0l446 592h-346l29 108h492l-26 -93l-450 -607h-145z" />
    <glyph glyph-name="eight" unicode="8" horiz-adv-x="656" 
d="M298 -10c-147 0 -264 80 -264 193c0 109 83 171 190 194c-56 25 -92 78 -92 139c0 96 95 194 259 194c143 0 243 -77 243 -185c0 -91 -65 -156 -161 -177c62 -24 112 -76 112 -152c0 -109 -112 -206 -287 -206zM377 405c62 0 140 34 140 108c0 53 -49 95 -131 95
c-78 0 -138 -45 -138 -107c0 -54 52 -96 129 -96zM305 91c91 0 159 45 159 111c0 58 -59 104 -150 104c-96 0 -158 -50 -158 -113c0 -59 60 -102 149 -102z" />
    <glyph glyph-name="nine" unicode="9" horiz-adv-x="642" 
d="M243 -12c-88 0 -164 34 -224 92l74 87c46 -42 93 -69 156 -69c112 0 208 97 235 223c-33 -38 -98 -78 -178 -78c-124 0 -216 77 -216 201c0 147 125 268 284 268c144 0 248 -82 248 -270c0 -234 -159 -454 -379 -454zM343 345c94 0 159 69 159 145c0 72 -55 117 -129 117
c-94 0 -158 -69 -158 -149c0 -65 47 -113 128 -113z" />
    <glyph glyph-name="colon" unicode=":" horiz-adv-x="296" 
d="M116 391l37 137h133l-37 -137h-133zM11 0l37 137h133l-37 -137h-133z" />
    <glyph glyph-name="semicolon" unicode=";" horiz-adv-x="296" 
d="M116 391l37 137h133l-37 -137h-133zM-44 -145l-9 51c72 10 106 43 115 94h-51l37 137h133l-31 -116c-31 -114 -91 -158 -194 -166z" />
    <glyph glyph-name="less" unicode="&#x3c;" horiz-adv-x="640" 
d="M493 77l-419 221l29 108l537 221l-33 -121l-400 -159l315 -160z" />
    <glyph glyph-name="equal" unicode="=" horiz-adv-x="640" 
d="M129 421l30 112h468l-30 -112h-468zM62 171l30 112h468l-30 -112h-468z" />
    <glyph glyph-name="greater" unicode="&#x3e;" horiz-adv-x="640" 
d="M38 77l33 121l400 159l-315 160l29 110l419 -221l-29 -108z" />
    <glyph glyph-name="question" unicode="?" horiz-adv-x="541" 
d="M182 221l23 162l6 5c134 10 215 54 215 127c0 52 -38 82 -103 82c-58 0 -116 -28 -159 -68l-66 81c61 62 148 99 241 99c135 0 216 -83 216 -180c0 -122 -99 -197 -259 -221l-33 -87h-81zM99 0l37 137h133l-37 -137h-133z" />
    <glyph glyph-name="at" unicode="@" horiz-adv-x="980" 
d="M476 -157c-248 0 -418 160 -418 389c0 258 216 482 489 482c250 0 400 -160 400 -347c0 -204 -117 -300 -227 -300c-69 0 -117 33 -134 84c-44 -49 -97 -85 -168 -85c-87 0 -160 61 -160 168c0 157 126 273 249 273c72 0 114 -35 138 -82l22 73l92 -25l-78 -247
c-5 -17 -8 -32 -8 -46c0 -44 26 -69 70 -69c70 0 164 87 164 256c0 168 -136 310 -360 310c-251 0 -449 -208 -449 -445c0 -208 153 -352 378 -352c74 0 138 15 205 45l16 -33c-73 -34 -141 -49 -221 -49zM456 151c78 0 159 80 159 173c0 58 -40 97 -100 97
c-78 0 -151 -78 -151 -174c0 -60 37 -96 92 -96z" />
    <glyph glyph-name="A" unicode="A" horiz-adv-x="763" 
d="M-50 0l497 705h118l119 -705h-126l-27 169h-331l-117 -169h-133zM275 278h241l-45 283z" />
    <glyph glyph-name="B" unicode="B" horiz-adv-x="717" 
d="M19 0l188 700h268c154 0 229 -72 229 -168s-67 -158 -160 -178c62 -24 108 -68 108 -143c0 -124 -108 -211 -298 -211h-335zM248 405h174c98 0 158 38 158 107c0 49 -38 79 -116 79h-166zM169 109h202c98 0 159 41 159 109c0 53 -47 83 -123 83h-187z" />
    <glyph glyph-name="C" unicode="C" horiz-adv-x="730" 
d="M391 -12c-180 0 -316 114 -316 298c0 225 189 426 423 426c132 0 221 -59 273 -150l-102 -69c-42 64 -93 106 -185 106c-150 0 -281 -144 -281 -308c0 -115 79 -190 190 -190c79 0 131 32 186 80l81 -82c-66 -64 -148 -111 -269 -111z" />
    <glyph glyph-name="D" unicode="D" horiz-adv-x="775" 
d="M19 0l188 700h190c128 0 217 -35 273 -91c52 -51 77 -118 77 -204c0 -105 -40 -201 -113 -274c-84 -84 -208 -131 -364 -131h-251zM172 112h113c103 0 194 33 256 95c50 50 78 117 78 193c0 55 -18 98 -49 129c-37 37 -97 59 -182 59h-87z" />
    <glyph glyph-name="E" unicode="E" horiz-adv-x="660" 
d="M19 0l188 700h514l-30 -110h-391l-49 -183h347l-30 -109h-347l-50 -188h397l-30 -110h-519z" />
    <glyph glyph-name="F" unicode="F" horiz-adv-x="661" 
d="M19 0l188 700h521l-30 -112h-398l-51 -191h353l-30 -112h-353l-76 -285h-124z" />
    <glyph glyph-name="G" unicode="G" horiz-adv-x="782" 
d="M395 -12c-164 0 -321 101 -321 301c0 217 185 423 434 423c147 0 230 -59 277 -124l-92 -78c-41 49 -96 89 -194 89c-169 0 -296 -147 -296 -306c0 -123 86 -193 200 -193c63 0 112 17 148 36l43 148h-179l29 107h298l-95 -335c-71 -42 -150 -68 -252 -68z" />
    <glyph glyph-name="H" unicode="H" horiz-adv-x="756" 
d="M19 0l188 700h124l-78 -291h329l78 291h123l-188 -700h-123l79 295h-329l-79 -295h-124z" />
    <glyph glyph-name="I" unicode="I" horiz-adv-x="317" 
d="M26 0l188 700h124l-188 -700h-124z" />
    <glyph glyph-name="J" unicode="J" horiz-adv-x="564" 
d="M190 -10c-97 0 -176 49 -219 130l90 71c35 -59 76 -87 134 -87c109 0 145 94 170 189l109 407h127l-117 -435c-54 -201 -141 -275 -294 -275z" />
    <glyph glyph-name="K" unicode="K" horiz-adv-x="723" 
d="M19 0l188 700h124l-95 -354l410 354h169l-356 -299l179 -401h-136l-141 328l-169 -142l-49 -186h-124z" />
    <glyph glyph-name="L" unicode="L" horiz-adv-x="618" 
d="M19 0l188 700h124l-158 -588h368l-31 -112h-491z" />
    <glyph glyph-name="M" unicode="M" horiz-adv-x="868" 
d="M19 0l188 700h125l122 -331l300 331h141l-188 -700h-125l135 502l-308 -330h-4l-129 328l-134 -500h-123z" />
    <glyph glyph-name="N" unicode="N" horiz-adv-x="786" 
d="M19 0l188 700h114l237 -495l134 495h121l-188 -700h-103l-245 509l-136 -509h-122z" />
    <glyph glyph-name="O" unicode="O" horiz-adv-x="836" 
d="M390 -12c-188 0 -314 133 -314 307c0 212 173 417 415 417c188 0 315 -133 315 -307c0 -212 -173 -417 -416 -417zM403 101c162 0 275 154 275 297c0 115 -74 201 -199 201c-162 0 -275 -154 -275 -297c0 -116 74 -201 199 -201z" />
    <glyph glyph-name="P" unicode="P" horiz-adv-x="674" 
d="M19 0l188 700h221c157 0 264 -66 264 -207c0 -169 -144 -266 -342 -266h-146l-61 -227h-124zM233 336h123c128 0 208 54 208 147c0 66 -50 105 -140 105h-124z" />
    <glyph glyph-name="Q" unicode="Q" horiz-adv-x="836" 
d="M640 -38l-54 77c-57 -32 -123 -51 -196 -51c-188 0 -314 133 -314 307c0 212 173 417 415 417c188 0 315 -133 315 -307c0 -111 -47 -220 -127 -298l61 -77zM403 101c44 0 84 12 119 32l-99 124l101 69l84 -120c44 54 70 124 70 192c0 115 -74 201 -199 201
c-162 0 -275 -154 -275 -297c0 -116 74 -201 199 -201z" />
    <glyph glyph-name="R" unicode="R" horiz-adv-x="723" 
d="M19 0l188 700h254c168 0 263 -73 263 -200c0 -132 -93 -217 -239 -244l130 -256h-141l-120 244h-146l-65 -244h-124zM237 353h159c123 0 200 53 200 137c0 61 -45 98 -142 98h-153z" />
    <glyph glyph-name="S" unicode="S" horiz-adv-x="637" 
d="M296 -10c-132 0 -233 46 -297 131l93 77c57 -65 121 -99 211 -99c78 0 135 39 135 97c0 42 -29 67 -129 106c-107 43 -180 91 -180 188c0 132 119 220 269 220c116 0 200 -42 257 -105l-86 -84c-53 52 -107 80 -180 80c-82 0 -130 -45 -130 -92c0 -45 35 -67 136 -107
c107 -42 174 -91 174 -188c0 -137 -125 -224 -273 -224z" />
    <glyph glyph-name="T" unicode="T" horiz-adv-x="618" 
d="M174 0l158 586h-223l31 114h568l-31 -114h-222l-158 -586h-123z" />
    <glyph glyph-name="U" unicode="U" horiz-adv-x="762" 
d="M345 -11c-164 0 -259 89 -259 231c0 36 6 73 16 111l98 369h123l-103 -386c-6 -23 -10 -48 -10 -77c0 -79 50 -135 147 -135c99 0 172 65 208 200l107 398h123l-112 -417c-52 -192 -159 -294 -338 -294z" />
    <glyph glyph-name="V" unicode="V" horiz-adv-x="721" 
d="M229 -5l-99 705h132l63 -535l351 535h139l-477 -705h-109z" />
    <glyph glyph-name="W" unicode="W" horiz-adv-x="1098" 
d="M191 -5l-55 705h128l29 -519l309 521h104l34 -521l306 519h140l-433 -705h-113l-36 497l-302 -497h-111z" />
    <glyph glyph-name="X" unicode="X" horiz-adv-x="698" 
d="M-43 0l347 363l-161 337h138l112 -250l230 250h158l-336 -352l166 -348h-138l-118 261l-240 -261h-158z" />
    <glyph glyph-name="Y" unicode="Y" horiz-adv-x="655" 
d="M189 0l74 278l-156 422h136l106 -316l277 316h152l-395 -435l-71 -265h-123z" />
    <glyph glyph-name="Z" unicode="Z" horiz-adv-x="681" 
d="M-19 0l24 91l535 500h-387l30 109h557l-25 -91l-535 -500h404l-29 -109h-574z" />
    <glyph glyph-name="bracketleft" unicode="[" horiz-adv-x="454" 
d="M-2 -130l223 830h308l-26 -95h-192l-172 -640h192l-25 -95h-308z" />
    <glyph glyph-name="backslash" unicode="\" horiz-adv-x="521" 
d="M339 -128l-212 926h101l212 -926h-101z" />
    <glyph glyph-name="bracketright" unicode="]" horiz-adv-x="454" 
d="M-64 -130l26 95h192l172 640h-192l25 95h308l-223 -830h-308z" />
    <glyph glyph-name="asciicircum" unicode="^" 
d="M98 493l207 208h85l96 -208h-84l-67 132l-137 -132h-100z" />
    <glyph glyph-name="underscore" unicode="_" horiz-adv-x="600" 
d="M-115 -160l26 94h604l-25 -94h-605z" />
    <glyph glyph-name="grave" unicode="`" 
d="M353 595l-91 115l113 49l61 -164h-83z" />
    <glyph glyph-name="a" unicode="a" horiz-adv-x="583" 
d="M174 -11c-91 0 -161 57 -161 145c0 122 99 190 235 190c58 0 111 -10 158 -26l3 11c4 16 6 26 6 42c0 47 -34 78 -115 78c-53 0 -103 -12 -145 -29l-20 100c54 22 117 36 189 36c139 0 212 -61 212 -164c0 -25 -4 -49 -11 -75l-79 -297h-119l18 69
c-46 -49 -99 -80 -171 -80zM221 78c75 0 143 59 160 124l6 23c-33 10 -73 20 -120 20c-81 0 -130 -40 -130 -95c0 -46 32 -72 84 -72z" />
    <glyph glyph-name="b" unicode="b" horiz-adv-x="668" 
d="M329 -11c-93 0 -146 46 -178 105l-25 -94h-121l195 730h121l-73 -272c48 48 100 81 169 81c118 0 206 -86 206 -226c0 -187 -142 -324 -294 -324zM315 92c99 0 182 95 182 212c0 81 -50 131 -125 131c-97 0 -190 -97 -190 -209c0 -77 54 -134 133 -134z" />
    <glyph glyph-name="c" unicode="c" horiz-adv-x="561" 
d="M286 -12c-136 0 -242 91 -242 235c0 173 144 316 312 316c113 0 178 -56 214 -120l-94 -64c-28 45 -62 79 -130 79c-95 0 -181 -98 -181 -210c0 -83 57 -132 125 -132c53 0 93 22 135 59l64 -79c-55 -50 -114 -84 -203 -84z" />
    <glyph glyph-name="d" unicode="d" horiz-adv-x="668" 
d="M250 -11c-117 0 -206 86 -206 226c0 187 143 324 294 324c93 0 146 -46 178 -105l79 296h121l-195 -730h-121l19 70c-48 -48 -100 -81 -169 -81zM296 92c97 0 190 98 190 210c0 77 -55 133 -134 133c-98 0 -182 -94 -182 -212c0 -80 50 -131 126 -131z" />
    <glyph glyph-name="e" unicode="e" horiz-adv-x="600" 
d="M159 220c1 -79 48 -133 137 -133c51 0 90 17 135 51l58 -77c-50 -41 -114 -73 -205 -73c-147 0 -240 89 -240 231c0 156 127 320 311 320c135 0 211 -90 211 -205c0 -37 -9 -76 -23 -114h-384zM172 303h274c3 8 5 21 5 36c0 55 -32 101 -105 101
c-82 0 -147 -58 -174 -137z" />
    <glyph glyph-name="f" unicode="f" horiz-adv-x="396" 
d="M33 0l114 424h-67l28 104h67l10 43c26 113 99 164 201 164c42 0 78 -7 104 -18l-27 -101c-24 10 -49 16 -74 16c-44 0 -73 -23 -87 -74l-8 -30h146l-28 -104h-144l-114 -424h-121z" />
    <glyph glyph-name="g" unicode="g" horiz-adv-x="666" 
d="M246 -162c-103 0 -203 30 -271 81l67 84c56 -42 126 -67 197 -67c57 0 99 17 129 47c26 26 42 61 55 107l9 32c-55 -51 -107 -80 -181 -80c-104 0 -203 68 -203 191c0 176 145 306 292 306c100 0 145 -52 174 -106l25 95h121l-116 -436c-26 -96 -49 -140 -90 -180
c-49 -49 -114 -74 -208 -74zM296 141c97 0 184 83 184 177c0 67 -50 118 -128 118c-95 0 -178 -82 -178 -182c0 -75 54 -113 122 -113z" />
    <glyph glyph-name="h" unicode="h" horiz-adv-x="618" 
d="M5 0l195 730h121l-72 -270c42 42 93 79 160 79c98 0 161 -61 161 -158c0 -28 -8 -62 -16 -93l-76 -288h-121l78 293c5 17 8 38 8 53c0 53 -34 83 -92 83c-68 0 -124 -54 -145 -132l-80 -297h-121z" />
    <glyph glyph-name="i" unicode="i" horiz-adv-x="286" 
d="M171 609l31 115h131l-32 -115h-130zM12 0l142 528h121l-142 -528h-121z" />
    <glyph glyph-name="j" unicode="j" horiz-adv-x="285" 
d="M171 609l31 115h130l-31 -115h-130zM-48 -163c-30 0 -53 3 -77 9l26 96c13 -3 26 -6 40 -6c34 0 61 25 73 72l140 520h121l-144 -535c-31 -114 -97 -156 -179 -156z" />
    <glyph glyph-name="k" unicode="k" horiz-adv-x="582" 
d="M5 0l196 730h121l-114 -427l270 225h160l-266 -215l127 -313h-136l-94 235l-102 -82l-41 -153h-121z" />
    <glyph glyph-name="l" unicode="l" horiz-adv-x="286" 
d="M12 0l196 730h121l-196 -730h-121z" />
    <glyph glyph-name="m" unicode="m" horiz-adv-x="950" 
d="M5 0l141 528h121l-18 -68c42 43 88 79 155 79c78 0 126 -46 144 -106c46 63 113 106 198 106c95 0 157 -62 157 -158c0 -28 -9 -62 -17 -93l-77 -288h-121l79 293c4 17 7 38 7 53c0 53 -31 83 -86 83c-66 0 -119 -54 -140 -132l-80 -297h-121l79 293c4 17 7 38 7 53
c0 53 -31 83 -86 83c-67 0 -120 -54 -141 -132l-80 -297h-121z" />
    <glyph glyph-name="n" unicode="n" horiz-adv-x="617" 
d="M5 0l141 528h121l-18 -68c42 42 93 79 160 79c98 0 161 -61 161 -158c0 -28 -8 -62 -16 -93l-76 -288h-121l78 293c5 17 8 38 8 53c0 53 -34 83 -92 83c-68 0 -124 -54 -145 -132l-80 -297h-121z" />
    <glyph glyph-name="o" unicode="o" horiz-adv-x="646" 
d="M293 -12c-151 0 -248 102 -248 241c0 161 138 310 308 310c151 0 248 -102 248 -242c0 -161 -140 -309 -308 -309zM300 93c102 0 181 105 181 201c0 89 -55 140 -135 140c-104 0 -181 -107 -181 -201c0 -89 55 -140 135 -140z" />
    <glyph glyph-name="p" unicode="p" horiz-adv-x="668" 
d="M-38 -160l184 688h121l-19 -70c48 48 100 81 169 81c118 0 206 -86 206 -226c0 -187 -142 -324 -294 -324c-93 0 -146 46 -178 105l-68 -254h-121zM315 92c99 0 182 95 182 212c0 81 -50 131 -125 131c-97 0 -190 -97 -190 -209c0 -77 54 -134 133 -134z" />
    <glyph glyph-name="q" unicode="q" horiz-adv-x="668" 
d="M347 -200l72 271c-47 -49 -100 -82 -169 -82c-117 0 -206 86 -206 226c0 187 143 324 294 324c93 0 146 -45 178 -104l25 93h121l-194 -728h-121zM296 92c97 0 190 98 190 210c0 78 -55 133 -134 133c-98 0 -182 -94 -182 -212c0 -80 50 -131 126 -131z" />
    <glyph glyph-name="r" unicode="r" horiz-adv-x="412" 
d="M5 0l141 528h121l-31 -119c58 84 127 135 221 129l-34 -128h-7c-106 0 -198 -68 -237 -214l-53 -196h-121z" />
    <glyph glyph-name="s" unicode="s" horiz-adv-x="498" 
d="M217 -12c-80 0 -172 31 -233 95l72 74c56 -56 117 -74 170 -74c48 0 85 24 85 63c0 26 -24 44 -77 66c-88 36 -152 70 -152 151c0 99 80 175 207 175c83 0 159 -36 203 -74l-67 -78c-48 38 -96 58 -145 58c-52 0 -81 -26 -81 -60c0 -27 24 -44 84 -69
c80 -34 145 -71 145 -148c0 -109 -91 -179 -211 -179z" />
    <glyph glyph-name="t" unicode="t" horiz-adv-x="409" 
d="M196 -9c-85 0 -132 41 -132 104c0 20 4 41 9 61l71 268h-67l28 104h67l39 145h121l-39 -145h141l-28 -104h-141l-68 -255c-3 -10 -4 -22 -4 -30c0 -27 18 -41 53 -41c24 0 51 6 77 17l-28 -105c-29 -13 -62 -19 -99 -19z" />
    <glyph glyph-name="u" unicode="u" horiz-adv-x="618" 
d="M209 -11c-98 0 -161 61 -161 158c0 28 8 62 16 93l77 288h121l-79 -293c-4 -16 -7 -38 -7 -53c0 -53 33 -83 91 -83c68 0 124 54 145 132l80 297h121l-141 -528h-121l18 68c-42 -42 -93 -79 -160 -79z" />
    <glyph glyph-name="v" unicode="v" horiz-adv-x="581" 
d="M159 -4l-73 532h125l38 -386l243 386h132l-356 -532h-109z" />
    <glyph glyph-name="w" unicode="w" horiz-adv-x="853" 
d="M121 -4l-29 532h123l10 -361l214 363h103l20 -363l206 361h122l-316 -532h-109l-21 361l-216 -361h-107z" />
    <glyph glyph-name="x" unicode="x" horiz-adv-x="572" 
d="M-44 0l269 275l-122 253h130l75 -169l156 169h146l-256 -265l125 -263h-130l-79 180l-167 -180h-147z" />
    <glyph glyph-name="y" unicode="y" horiz-adv-x="585" 
d="M65 -163c-50 0 -86 13 -119 36l64 89c18 -13 46 -23 68 -23c31 0 56 13 90 59l-77 530h124l44 -391l233 391h132l-341 -543c-69 -109 -132 -148 -218 -148z" />
    <glyph glyph-name="z" unicode="z" horiz-adv-x="554" 
d="M-24 0l23 83l388 346h-285l26 99h445l-22 -83l-389 -346h299l-27 -99h-458z" />
    <glyph glyph-name="braceleft" unicode="{" horiz-adv-x="487" 
d="M309 -141c-129 26 -177 80 -177 157c0 27 6 52 21 96c8 25 13 51 13 67c0 38 -12 62 -85 62h-31l25 92h30c98 0 130 33 150 163c21 144 95 214 279 219l6 -82c-133 -11 -165 -60 -179 -164c-18 -139 -65 -179 -160 -191c53 -10 81 -42 81 -87c0 -24 -9 -49 -16 -71
c-9 -26 -18 -57 -18 -84c0 -48 21 -76 100 -103z" />
    <glyph glyph-name="bar" unicode="|" horiz-adv-x="331" 
d="M135 -128v926h97v-926h-97z" />
    <glyph glyph-name="braceright" unicode="}" horiz-adv-x="487" 
d="M-35 -141l-6 82c133 11 165 60 179 164c19 139 65 179 160 191c-53 10 -80 42 -80 87c0 24 7 49 15 71c8 25 18 57 18 84c0 48 -21 76 -100 103l39 74c129 -26 177 -80 177 -157c0 -27 -5 -52 -20 -96c-9 -25 -14 -51 -14 -67c0 -38 12 -62 86 -62h30l-25 -92h-30
c-97 0 -131 -33 -150 -163c-22 -144 -95 -214 -279 -219z" />
    <glyph glyph-name="asciitilde" unicode="~" horiz-adv-x="495" 
d="M132 228l-67 32c34 74 80 122 138 122c33 0 53 -13 75 -31c25 -20 35 -27 52 -27c28 0 46 23 66 59l68 -32c-34 -74 -81 -122 -138 -122c-34 0 -52 12 -76 31c-25 19 -35 27 -51 27c-28 0 -47 -24 -67 -59z" />
    <glyph glyph-name="nbspace" horiz-adv-x="300" 
 />
    <glyph glyph-name="uni00A0" unicode="&#xa0;" horiz-adv-x="300" 
 />
    <glyph glyph-name="exclamdown" unicode="&#xa1;" horiz-adv-x="303" 
d="M165 563l37 137h133l-37 -137h-133zM9 0l10 35l156 444h67l-81 -444l-10 -35h-142z" />
    <glyph glyph-name="cent" unicode="&#xa2;" horiz-adv-x="578" 
d="M203 104c-83 38 -134 115 -134 215c0 174 137 311 313 311c9 0 18 0 26 -1l30 77h88l-37 -94c58 -22 96 -61 119 -103l-92 -63c-18 29 -40 52 -71 66l-128 -328h8c59 0 102 21 145 56l65 -81c-49 -45 -115 -80 -207 -80c-16 0 -32 1 -46 3l-35 -88h-88zM371 525
c-105 -5 -182 -101 -182 -204c0 -51 23 -91 58 -114z" />
    <glyph glyph-name="sterling" unicode="&#xa3;" horiz-adv-x="638" 
d="M-10 0l21 78l86 24l47 176h-79l28 104h79l28 105c17 64 44 116 80 152c46 46 104 70 180 70c104 0 168 -49 205 -117l-99 -66c-27 43 -58 70 -115 70c-37 0 -62 -13 -84 -35s-38 -55 -49 -95l-24 -84h251l-27 -104h-251l-46 -171h327l-29 -107h-529z" />
    <glyph glyph-name="currency" unicode="&#xa4;" horiz-adv-x="709" 
d="M389 -12c-147 0 -249 91 -263 237h-98l23 85h76c3 30 8 58 16 85h-70l23 85h73c57 134 173 232 326 232c135 0 209 -66 243 -162l-105 -51c-30 65 -67 102 -146 102s-142 -47 -181 -121h225l-23 -85h-234c-10 -27 -16 -56 -19 -85h231l-23 -85h-209
c11 -79 63 -126 137 -126c67 0 111 27 159 79l83 -72c-59 -70 -137 -118 -244 -118z" />
    <glyph glyph-name="yen" unicode="&#xa5;" horiz-adv-x="708" 
d="M222 0l27 102h-192l24 89h192l19 73h-192l24 89h157l-138 347h133l108 -294l266 294h149l-328 -347h157l-24 -89h-193l-19 -73h193l-24 -89h-193l-27 -102h-119z" />
    <glyph glyph-name="brokenbar" unicode="&#xa6;" horiz-adv-x="222" 
d="M164 411h-106v250h106v-250zM164 -89h-106v250h106v-250z" />
    <glyph glyph-name="section" unicode="&#xa7;" horiz-adv-x="632" 
d="M285 -9c-99 0 -184 36 -231 89l76 70c37 -36 97 -66 162 -66c51 0 86 20 86 50c0 28 -31 44 -113 69c-109 33 -188 65 -188 144c0 69 57 117 154 130c-27 20 -48 48 -48 87c0 87 91 147 210 147c99 0 184 -36 231 -89l-76 -70c-37 36 -97 66 -162 66
c-51 0 -86 -20 -86 -50c0 -28 30 -44 113 -69c109 -32 188 -65 188 -144c0 -68 -57 -117 -154 -130c27 -20 48 -48 48 -87c0 -87 -91 -147 -210 -147zM397 275c49 0 89 27 89 61c0 31 -31 48 -100 70c-46 15 -73 21 -105 21c-49 0 -89 -27 -89 -61c0 -31 31 -48 100 -70
c46 -15 73 -21 105 -21z" />
    <glyph glyph-name="dieresis" unicode="&#xa8;" 
d="M373 595l32 118h123l-33 -118h-122zM174 595l32 118h123l-32 -118h-123z" />
    <glyph glyph-name="copyright" unicode="&#xa9;" horiz-adv-x="830" 
d="M436 -12c-203 0 -361 163 -361 361s160 363 363 363s361 -163 361 -361s-160 -363 -363 -363zM436 24c185 0 325 147 325 327s-139 325 -323 325c-185 0 -324 -147 -324 -327s138 -325 322 -325zM441 159c-110 0 -192 86 -192 195c0 108 81 197 195 197
c70 0 112 -24 148 -59l-47 -54c-29 26 -62 45 -102 45c-69 0 -118 -57 -118 -128c0 -70 50 -128 119 -128c44 0 72 18 103 47l48 -47c-40 -42 -83 -68 -154 -68z" />
    <glyph glyph-name="ordfeminine" unicode="&#xaa;" horiz-adv-x="390" 
d="M189 403c-50 0 -86 32 -86 78c0 67 56 107 128 107c33 0 63 -7 88 -15l2 7c2 6 4 15 4 20c0 26 -19 43 -64 43c-28 0 -56 -6 -78 -15l-12 56c30 12 64 20 105 20c77 0 117 -33 117 -90c0 -14 -3 -29 -6 -43l-44 -162h-69l11 39c-26 -27 -57 -45 -96 -45zM53 282l16 58
h259l-16 -58h-259zM217 452c39 0 79 32 89 70l2 10c-17 5 -40 11 -65 11c-41 0 -69 -22 -69 -54c0 -21 17 -37 43 -37z" />
    <glyph glyph-name="guillemotleft" unicode="&#xab;" horiz-adv-x="605" 
d="M403 34l-107 220l2 8l231 226l71 -65l-181 -177l81 -167zM152 34l-106 220l2 8l230 226l72 -65l-181 -177l81 -167z" />
    <glyph glyph-name="logicalnot" unicode="&#xac;" horiz-adv-x="640" 
d="M539 244h-112l48 176h-361l30 110h472z" />
    <glyph glyph-name="uni00AD" unicode="&#xad;" horiz-adv-x="411" 
d="M53 247l32 119h296l-32 -119h-296z" />
    <glyph glyph-name="registered" unicode="&#xae;" horiz-adv-x="830" 
d="M436 -12c-203 0 -361 163 -361 361s160 363 363 363s361 -163 361 -361s-160 -363 -363 -363zM436 24c185 0 325 147 325 327s-139 325 -323 325c-185 0 -324 -147 -324 -327s138 -325 322 -325zM291 171v379h169c88 0 146 -45 146 -121c0 -62 -36 -100 -88 -115
l103 -143h-86l-93 131h-78v-131h-73zM364 365h93c47 0 76 23 76 60c0 39 -29 60 -76 60h-93v-120z" />
    <glyph glyph-name="macron" unicode="&#xaf;" 
d="M168 600l24 89h342l-24 -89h-342z" />
    <glyph glyph-name="degree" unicode="&#xb0;" horiz-adv-x="421" 
d="M238 377c-91 0 -150 62 -150 146c0 97 82 185 183 185c92 0 151 -62 151 -146c0 -96 -82 -185 -184 -185zM242 445c60 0 104 58 104 114c0 49 -32 82 -78 82c-60 0 -104 -59 -104 -114c0 -50 32 -82 78 -82z" />
    <glyph glyph-name="plusminus" unicode="&#xb1;" horiz-adv-x="640" 
d="M577 315h-196l-40 -154h-115l42 154h-196l29 108h195l42 155h114l-42 -155h196zM488 3h-493l27 102h493z" />
    <glyph glyph-name="twosuperior" unicode="&#xb2;" 
d="M0 0v700h500v-700h-500zM81 49h340l-171 255zM50 95l170 254l-170 256v-510zM451 95v510l-172 -256zM250 395l171 255h-340z" />
    <glyph glyph-name="threesuperior" unicode="&#xb3;" 
d="M0 0v700h500v-700h-500zM81 49h340l-171 255zM50 95l170 254l-170 256v-510zM451 95v510l-172 -256zM250 395l171 255h-340z" />
    <glyph glyph-name="acute" unicode="&#xb4;" 
d="M221 595l150 164l108 -49l-153 -115h-105z" />
    <glyph glyph-name="mu" unicode="&#xb5;" horiz-adv-x="633" 
d="M210 -7c-43 0 -64 22 -76 46l-53 -199h-119l184 688h120l-80 -301c-5 -19 -7 -36 -7 -51c0 -53 30 -79 86 -79c71 0 144 52 166 134l79 297h119l-140 -528h-120c3 12 18 69 22 81c-46 -49 -104 -88 -181 -88z" />
    <glyph glyph-name="paragraph" unicode="&#xb6;" horiz-adv-x="565" 
d="M281 0l60 227c-150 5 -249 67 -249 204c0 156 116 269 344 269h156l-188 -700h-123z" />
    <glyph glyph-name="periodcentered" unicode="&#xb7;" horiz-adv-x="293" 
d="M69 238l37 137h134l-37 -137h-134z" />
    <glyph glyph-name="cedilla" unicode="&#xb8;" 
d="M145 -165l-93 44l124 131h91z" />
    <glyph glyph-name="onesuperior" unicode="&#xb9;" 
d="M0 0v700h500v-700h-500zM81 49h340l-171 255zM50 95l170 254l-170 256v-510zM451 95v510l-172 -256zM250 395l171 255h-340z" />
    <glyph glyph-name="ordmasculine" unicode="&#xba;" horiz-adv-x="398" 
d="M246 401c-85 0 -139 57 -139 134c0 89 75 170 169 170c84 0 139 -56 139 -134c0 -89 -75 -170 -169 -170zM54 282l15 58h275l-15 -58h-275zM249 462c56 0 96 54 96 106c0 46 -29 76 -72 76c-56 0 -96 -54 -96 -106c0 -45 29 -76 72 -76z" />
    <glyph glyph-name="guillemotright" unicode="&#xbb;" horiz-adv-x="605" 
d="M324 34l-71 64l181 178l-81 167l97 44l107 -219l-2 -8zM74 34l-71 64l180 178l-80 167l97 44l107 -219l-2 -8z" />
    <glyph glyph-name="onequarter" unicode="&#xbc;" 
d="M0 0v700h500v-700h-500zM81 49h340l-171 255zM50 95l170 254l-170 256v-510zM451 95v510l-172 -256zM250 395l171 255h-340z" />
    <glyph glyph-name="onehalf" unicode="&#xbd;" 
d="M0 0v700h500v-700h-500zM81 49h340l-171 255zM50 95l170 254l-170 256v-510zM451 95v510l-172 -256zM250 395l171 255h-340z" />
    <glyph glyph-name="threequarters" unicode="&#xbe;" 
d="M0 0v700h500v-700h-500zM81 49h340l-171 255zM50 95l170 254l-170 256v-510zM451 95v510l-172 -256zM250 395l171 255h-340z" />
    <glyph glyph-name="questiondown" unicode="&#xbf;" horiz-adv-x="541" 
d="M318 563l37 137h133l-37 -137h-133zM249 -9c-136 0 -217 83 -217 180c0 122 99 197 259 221l33 87h81l-23 -162l-6 -5c-134 -10 -215 -54 -215 -127c0 -52 38 -82 103 -82c58 0 116 28 159 68l66 -81c-61 -62 -148 -99 -240 -99z" />
    <glyph glyph-name="Agrave" unicode="&#xc0;" horiz-adv-x="763" 
d="M-50 0l497 705h118l119 -705h-126l-27 169h-331l-117 -169h-133zM275 278h241l-45 283zM479 758l-91 115l113 49l61 -164h-83z" />
    <glyph glyph-name="Aacute" unicode="&#xc1;" horiz-adv-x="763" 
d="M-50 0l497 705h118l119 -705h-126l-27 169h-331l-117 -169h-133zM275 278h241l-45 283zM445 758l150 164l108 -49l-153 -115h-105z" />
    <glyph glyph-name="Acircumflex" unicode="&#xc2;" horiz-adv-x="763" 
d="M-50 0l497 705h118l119 -705h-126l-27 169h-331l-117 -169h-133zM275 278h241l-45 283zM329 758l155 146h113l77 -146h-91l-58 67l-96 -67h-100z" />
    <glyph glyph-name="Atilde" unicode="&#xc3;" horiz-adv-x="763" 
d="M-50 0l497 705h118l119 -705h-126l-27 169h-331l-117 -169h-133zM275 278h241l-45 283zM387 753l-67 32c34 74 80 122 138 122c33 0 52 -13 75 -31c25 -20 35 -27 52 -27c28 0 46 23 66 59l68 -32c-34 -74 -81 -122 -139 -122c-33 0 -52 12 -75 31c-25 19 -35 27 -51 27
c-28 0 -47 -24 -67 -59z" />
    <glyph glyph-name="Adieresis" unicode="&#xc4;" horiz-adv-x="763" 
d="M-50 0l497 705h118l119 -705h-126l-27 169h-331l-117 -169h-133zM275 278h241l-45 283zM553 758l32 118h123l-33 -118h-122zM354 758l32 118h123l-32 -118h-123z" />
    <glyph glyph-name="Aring" unicode="&#xc5;" horiz-adv-x="763" 
d="M-47 0l485 689c-20 17 -32 42 -32 71c0 67 56 124 126 124c65 0 106 -43 106 -97c0 -47 -27 -87 -66 -107l115 -680h-126l-27 169h-331l-117 -169h-133zM514 710c40 0 68 37 68 76c0 28 -19 50 -51 50c-41 0 -69 -37 -69 -76c0 -28 19 -50 52 -50zM278 278h241l-45 283z
" />
    <glyph glyph-name="AE" unicode="&#xc6;" horiz-adv-x="1061" 
d="M-52 0l579 700h590l-30 -110h-374l-49 -183h330l-30 -109h-330l-50 -188h380l-30 -110h-502l46 169h-256l-139 -169h-135zM311 278h196l84 315h-21z" />
    <glyph glyph-name="Ccedilla" unicode="&#xc7;" horiz-adv-x="730" 
d="M384 -12l-107 -153l-93 44l114 120c-131 33 -223 136 -223 287c0 225 189 426 423 426c132 0 221 -59 273 -150l-102 -69c-42 64 -93 106 -185 106c-150 0 -281 -144 -281 -308c0 -115 79 -190 190 -190c79 0 131 32 186 80l81 -82c-66 -64 -148 -111 -269 -111h-7z" />
    <glyph glyph-name="Egrave" unicode="&#xc8;" horiz-adv-x="660" 
d="M19 0l188 700h514l-30 -110h-391l-49 -183h347l-30 -109h-347l-50 -188h397l-30 -110h-519zM444 758l-91 115l113 49l61 -164h-83z" />
    <glyph glyph-name="Eacute" unicode="&#xc9;" horiz-adv-x="660" 
d="M19 0l188 700h514l-30 -110h-391l-49 -183h347l-30 -109h-347l-50 -188h397l-30 -110h-519zM393 758l150 164l108 -49l-153 -115h-105z" />
    <glyph glyph-name="Ecircumflex" unicode="&#xca;" horiz-adv-x="660" 
d="M19 0l188 700h514l-30 -110h-391l-49 -183h347l-30 -109h-347l-50 -188h397l-30 -110h-519zM302 758l155 146h113l77 -146h-91l-58 67l-96 -67h-100z" />
    <glyph glyph-name="Edieresis" unicode="&#xcb;" horiz-adv-x="660" 
d="M19 0l188 700h514l-30 -110h-391l-49 -183h347l-30 -109h-347l-50 -188h397l-30 -110h-519zM514 758l32 118h123l-33 -118h-122zM315 758l32 118h123l-32 -118h-123z" />
    <glyph glyph-name="Igrave" unicode="&#xcc;" horiz-adv-x="317" 
d="M26 0l188 700h124l-188 -700h-124zM259 758l-91 115l113 49l61 -164h-83z" />
    <glyph glyph-name="Iacute" unicode="&#xcd;" horiz-adv-x="317" 
d="M26 0l188 700h124l-188 -700h-124zM217 758l150 164l108 -49l-153 -115h-105z" />
    <glyph glyph-name="Icircumflex" unicode="&#xce;" horiz-adv-x="317" 
d="M26 0l188 700h124l-188 -700h-124zM109 758l155 146h113l77 -146h-91l-58 67l-96 -67h-100z" />
    <glyph glyph-name="Idieresis" unicode="&#xcf;" horiz-adv-x="317" 
d="M26 0l188 700h124l-188 -700h-124zM329 758l32 118h123l-33 -118h-122zM130 758l32 118h123l-32 -118h-123z" />
    <glyph glyph-name="Eth" unicode="&#xd0;" horiz-adv-x="798" 
d="M42 0l80 297h-81l30 110h81l78 293h190c128 0 217 -35 273 -91c52 -51 77 -118 77 -204c0 -105 -40 -201 -113 -274c-84 -84 -208 -131 -364 -131h-251zM195 112h113c103 0 194 33 256 95c50 50 78 117 78 193c0 55 -18 98 -49 129c-37 37 -97 59 -182 59h-87l-49 -181
h169l-30 -110h-169z" />
    <glyph glyph-name="Ntilde" unicode="&#xd1;" horiz-adv-x="786" 
d="M19 0l188 700h114l237 -495l134 495h121l-188 -700h-103l-245 509l-136 -509h-122zM393 753l-67 32c34 74 80 122 138 122c33 0 52 -13 75 -31c25 -20 35 -27 52 -27c28 0 46 23 66 59l68 -32c-34 -74 -81 -122 -139 -122c-33 0 -52 12 -75 31c-25 19 -35 27 -51 27
c-28 0 -47 -24 -67 -59z" />
    <glyph glyph-name="Ograve" unicode="&#xd2;" horiz-adv-x="836" 
d="M390 -12c-188 0 -314 133 -314 307c0 212 173 417 415 417c188 0 315 -133 315 -307c0 -212 -173 -417 -416 -417zM403 101c162 0 275 154 275 297c0 115 -74 201 -199 201c-162 0 -275 -154 -275 -297c0 -116 74 -201 199 -201zM495 758l-91 115l113 49l61 -164h-83z
" />
    <glyph glyph-name="Oacute" unicode="&#xd3;" horiz-adv-x="836" 
d="M390 -12c-188 0 -314 133 -314 307c0 212 173 417 415 417c188 0 315 -133 315 -307c0 -212 -173 -417 -416 -417zM403 101c162 0 275 154 275 297c0 115 -74 201 -199 201c-162 0 -275 -154 -275 -297c0 -116 74 -201 199 -201zM431 758l150 164l108 -49l-153 -115h-105
z" />
    <glyph glyph-name="Ocircumflex" unicode="&#xd4;" horiz-adv-x="836" 
d="M390 -12c-188 0 -314 133 -314 307c0 212 173 417 415 417c188 0 315 -133 315 -307c0 -212 -173 -417 -416 -417zM403 101c162 0 275 154 275 297c0 115 -74 201 -199 201c-162 0 -275 -154 -275 -297c0 -116 74 -201 199 -201zM350 758l155 146h113l77 -146h-91l-58 67
l-96 -67h-100z" />
    <glyph glyph-name="Otilde" unicode="&#xd5;" horiz-adv-x="836" 
d="M390 -12c-188 0 -314 133 -314 307c0 212 173 417 415 417c188 0 315 -133 315 -307c0 -212 -173 -417 -416 -417zM403 101c162 0 275 154 275 297c0 115 -74 201 -199 201c-162 0 -275 -154 -275 -297c0 -116 74 -201 199 -201zM405 753l-67 32c34 74 80 122 138 122
c33 0 52 -13 75 -31c25 -20 35 -27 52 -27c28 0 46 23 66 59l68 -32c-34 -74 -81 -122 -139 -122c-33 0 -52 12 -75 31c-25 19 -35 27 -51 27c-28 0 -47 -24 -67 -59z" />
    <glyph glyph-name="Odieresis" unicode="&#xd6;" horiz-adv-x="836" 
d="M390 -12c-188 0 -314 133 -314 307c0 212 173 417 415 417c188 0 315 -133 315 -307c0 -212 -173 -417 -416 -417zM403 101c162 0 275 154 275 297c0 115 -74 201 -199 201c-162 0 -275 -154 -275 -297c0 -116 74 -201 199 -201zM565 758l32 118h123l-33 -118h-122z
M366 758l32 118h123l-32 -118h-123z" />
    <glyph glyph-name="multiply" unicode="&#xd7;" horiz-adv-x="640" 
d="M587 134l-73 -74c-27 27 -151 152 -178 179l-176 -179l-73 74c33 33 144 145 178 177l-178 178c17 16 55 56 73 73c26 -27 150 -152 176 -179c33 33 146 146 178 179c18 -17 56 -57 73 -73l-178 -178c33 -32 145 -144 178 -177z" />
    <glyph glyph-name="Oslash" unicode="&#xd8;" horiz-adv-x="836" 
d="M390 -12c-86 0 -159 29 -212 75l-78 -68h-123l146 130c-31 49 -47 106 -47 170c0 212 173 417 415 417c88 0 162 -29 216 -78l80 71h123l-149 -134c29 -47 45 -104 45 -166c0 -212 -173 -417 -416 -417zM219 206l396 350c-34 30 -80 47 -136 47
c-164 0 -279 -157 -279 -302c0 -35 6 -67 19 -95zM402 96c165 0 280 158 280 302c0 34 -6 65 -18 92l-393 -349c33 -29 78 -45 131 -45z" />
    <glyph glyph-name="Ugrave" unicode="&#xd9;" horiz-adv-x="762" 
d="M345 -11c-164 0 -259 89 -259 231c0 36 6 73 16 111l98 369h123l-103 -386c-6 -23 -10 -48 -10 -77c0 -79 50 -135 147 -135c99 0 172 65 208 200l107 398h123l-112 -417c-52 -192 -159 -294 -338 -294zM476 758l-91 115l113 49l61 -164h-83z" />
    <glyph glyph-name="Uacute" unicode="&#xda;" horiz-adv-x="762" 
d="M345 -11c-164 0 -259 89 -259 231c0 36 6 73 16 111l98 369h123l-103 -386c-6 -23 -10 -48 -10 -77c0 -79 50 -135 147 -135c99 0 172 65 208 200l107 398h123l-112 -417c-52 -192 -159 -294 -338 -294zM424 758l150 164l108 -49l-153 -115h-105z" />
    <glyph glyph-name="Ucircumflex" unicode="&#xdb;" horiz-adv-x="762" 
d="M345 -11c-164 0 -259 89 -259 231c0 36 6 73 16 111l98 369h123l-103 -386c-6 -23 -10 -48 -10 -77c0 -79 50 -135 147 -135c99 0 172 65 208 200l107 398h123l-112 -417c-52 -192 -159 -294 -338 -294zM329 758l155 146h113l77 -146h-91l-58 67l-96 -67h-100z" />
    <glyph glyph-name="Udieresis" unicode="&#xdc;" horiz-adv-x="762" 
d="M345 -11c-164 0 -259 89 -259 231c0 36 6 73 16 111l98 369h123l-103 -386c-6 -23 -10 -48 -10 -77c0 -79 50 -135 147 -135c99 0 172 65 208 200l107 398h123l-112 -417c-52 -192 -159 -294 -338 -294zM549 758l32 118h123l-33 -118h-122zM350 758l32 118h123l-32 -118
h-123z" />
    <glyph glyph-name="Yacute" unicode="&#xdd;" horiz-adv-x="655" 
d="M189 0l74 278l-156 422h136l106 -316l277 316h152l-395 -435l-71 -265h-123zM370 758l150 164l108 -49l-153 -115h-105z" />
    <glyph glyph-name="Thorn" unicode="&#xde;" horiz-adv-x="683" 
d="M19 0l188 700h123l-29 -110h98c157 0 264 -65 264 -206c0 -170 -145 -266 -342 -266h-146l-32 -118h-124zM203 226h124c128 0 208 54 208 148c0 64 -51 105 -141 105h-123z" />
    <glyph glyph-name="germandbls" unicode="&#xdf;" horiz-adv-x="628" 
d="M225 -2l26 96c142 0 194 54 194 122c0 51 -40 88 -135 101l22 83c115 27 164 79 164 145c0 55 -41 89 -97 89c-69 0 -118 -52 -142 -142l-131 -492h-121l135 502c40 150 125 235 264 235c129 0 208 -78 208 -181s-72 -166 -172 -197c66 -23 121 -67 121 -146
c0 -122 -104 -215 -319 -215h-17z" />
    <glyph glyph-name="agrave" unicode="&#xe0;" horiz-adv-x="583" 
d="M174 -11c-91 0 -161 57 -161 145c0 122 99 190 235 190c58 0 111 -10 158 -26l3 11c4 16 6 26 6 42c0 47 -34 78 -115 78c-53 0 -103 -12 -145 -29l-20 100c54 22 117 36 189 36c139 0 212 -61 212 -164c0 -25 -4 -49 -11 -75l-79 -297h-119l18 69
c-46 -49 -99 -80 -171 -80zM221 78c75 0 143 59 160 124l6 23c-33 10 -73 20 -120 20c-81 0 -130 -40 -130 -95c0 -46 32 -72 84 -72zM342 595l-91 115l113 49l61 -164h-83z" />
    <glyph glyph-name="aacute" unicode="&#xe1;" horiz-adv-x="583" 
d="M174 -11c-91 0 -161 57 -161 145c0 122 99 190 235 190c58 0 111 -10 158 -26l3 11c4 16 6 26 6 42c0 47 -34 78 -115 78c-53 0 -103 -12 -145 -29l-20 100c54 22 117 36 189 36c139 0 212 -61 212 -164c0 -25 -4 -49 -11 -75l-79 -297h-119l18 69
c-46 -49 -99 -80 -171 -80zM221 78c75 0 143 59 160 124l6 23c-33 10 -73 20 -120 20c-81 0 -130 -40 -130 -95c0 -46 32 -72 84 -72zM289 595l150 164l108 -49l-153 -115h-105z" />
    <glyph glyph-name="acircumflex" unicode="&#xe2;" horiz-adv-x="583" 
d="M174 -11c-91 0 -161 57 -161 145c0 122 99 190 235 190c58 0 111 -10 158 -26l3 11c4 16 6 26 6 42c0 47 -34 78 -115 78c-53 0 -103 -12 -145 -29l-20 100c54 22 117 36 189 36c139 0 212 -61 212 -164c0 -25 -4 -49 -11 -75l-79 -297h-119l18 69
c-46 -49 -99 -80 -171 -80zM221 78c75 0 143 59 160 124l6 23c-33 10 -73 20 -120 20c-81 0 -130 -40 -130 -95c0 -46 32 -72 84 -72zM199 595l155 146h113l77 -146h-91l-58 67l-96 -67h-100z" />
    <glyph glyph-name="atilde" unicode="&#xe3;" horiz-adv-x="583" 
d="M174 -11c-91 0 -161 57 -161 145c0 122 99 190 235 190c58 0 111 -10 158 -26l3 11c4 16 6 26 6 42c0 47 -34 78 -115 78c-53 0 -103 -12 -145 -29l-20 100c54 22 117 36 189 36c139 0 212 -61 212 -164c0 -25 -4 -49 -11 -75l-79 -297h-119l18 69
c-46 -49 -99 -80 -171 -80zM221 78c75 0 143 59 160 124l6 23c-33 10 -73 20 -120 20c-81 0 -130 -40 -130 -95c0 -46 32 -72 84 -72zM250 590l-67 32c34 74 80 122 138 122c33 0 52 -13 75 -31c25 -20 35 -27 52 -27c28 0 46 23 66 59l68 -32c-34 -74 -81 -122 -139 -122
c-33 0 -52 12 -75 31c-25 19 -35 27 -51 27c-28 0 -47 -24 -67 -59z" />
    <glyph glyph-name="adieresis" unicode="&#xe4;" horiz-adv-x="583" 
d="M174 -11c-91 0 -161 57 -161 145c0 122 99 190 235 190c58 0 111 -10 158 -26l3 11c4 16 6 26 6 42c0 47 -34 78 -115 78c-53 0 -103 -12 -145 -29l-20 100c54 22 117 36 189 36c139 0 212 -61 212 -164c0 -25 -4 -49 -11 -75l-79 -297h-119l18 69
c-46 -49 -99 -80 -171 -80zM221 78c75 0 143 59 160 124l6 23c-33 10 -73 20 -120 20c-81 0 -130 -40 -130 -95c0 -46 32 -72 84 -72zM410 595l32 118h123l-33 -118h-122zM211 595l32 118h123l-32 -118h-123z" />
    <glyph glyph-name="aring" unicode="&#xe5;" horiz-adv-x="583" 
d="M174 -11c-91 0 -161 57 -161 145c0 122 99 190 235 190c58 0 111 -10 158 -26l3 11c4 16 6 26 6 42c0 47 -34 78 -115 78c-53 0 -103 -12 -145 -29l-20 100c54 22 117 36 189 36c139 0 212 -61 212 -164c0 -25 -4 -49 -11 -75l-79 -297h-119l18 69
c-46 -49 -99 -80 -171 -80zM221 78c75 0 143 59 160 124l6 23c-33 10 -73 20 -120 20c-81 0 -130 -40 -130 -95c0 -46 32 -72 84 -72zM389 594c-65 0 -106 42 -106 97c0 67 56 124 125 124c65 0 106 -42 106 -97c0 -68 -56 -124 -125 -124zM390 642c40 0 69 36 69 75
c0 29 -19 50 -52 50c-40 0 -69 -36 -69 -75c0 -29 19 -50 52 -50z" />
    <glyph glyph-name="ae" unicode="&#xe6;" horiz-adv-x="948" 
d="M431 92c-65 -60 -137 -103 -233 -103c-114 0 -185 59 -185 152c0 117 99 183 235 183c57 0 111 -10 158 -26l3 11c4 16 6 26 6 42c0 47 -34 78 -115 78c-53 0 -103 -12 -145 -29l-20 100c54 22 117 36 189 36c101 0 159 -33 183 -90c50 55 120 93 200 93
c132 0 207 -90 207 -205c0 -37 -8 -76 -23 -112h-384c0 -80 47 -135 137 -135c51 0 90 17 136 51l57 -77c-47 -41 -118 -73 -204 -73c-92 0 -164 36 -202 104zM520 302h275c2 9 4 22 4 37c0 55 -31 101 -105 101c-81 0 -147 -58 -174 -138zM400 221c-45 16 -91 24 -133 24
c-81 0 -130 -40 -130 -95c0 -46 34 -72 93 -72c55 0 129 38 175 86c-3 18 -5 37 -5 57z" />
    <glyph glyph-name="ccedilla" unicode="&#xe7;" horiz-adv-x="561" 
d="M204 0c-94 30 -160 110 -160 223c0 173 144 316 312 316c113 0 178 -56 214 -120l-94 -64c-28 45 -62 79 -130 79c-95 0 -181 -98 -181 -210c0 -83 57 -132 125 -132c53 0 93 22 135 59l64 -79c-54 -49 -113 -83 -200 -84h-1l-107 -153l-93 44z" />
    <glyph glyph-name="egrave" unicode="&#xe8;" horiz-adv-x="600" 
d="M159 220c1 -79 48 -133 137 -133c51 0 90 17 135 51l58 -77c-50 -41 -114 -73 -205 -73c-147 0 -240 89 -240 231c0 156 127 320 311 320c135 0 211 -90 211 -205c0 -37 -9 -76 -23 -114h-384zM172 303h274c3 8 5 21 5 36c0 55 -32 101 -105 101
c-82 0 -147 -58 -174 -137zM348 595l-91 115l113 49l61 -164h-83z" />
    <glyph glyph-name="eacute" unicode="&#xe9;" horiz-adv-x="600" 
d="M159 220c1 -79 48 -133 137 -133c51 0 90 17 135 51l58 -77c-50 -41 -114 -73 -205 -73c-147 0 -240 89 -240 231c0 156 127 320 311 320c135 0 211 -90 211 -205c0 -37 -9 -76 -23 -114h-384zM172 303h274c3 8 5 21 5 36c0 55 -32 101 -105 101
c-82 0 -147 -58 -174 -137zM293 595l150 164l108 -49l-153 -115h-105z" />
    <glyph glyph-name="ecircumflex" unicode="&#xea;" horiz-adv-x="600" 
d="M159 220c1 -79 48 -133 137 -133c51 0 90 17 135 51l58 -77c-50 -41 -114 -73 -205 -73c-147 0 -240 89 -240 231c0 156 127 320 311 320c135 0 211 -90 211 -205c0 -37 -9 -76 -23 -114h-384zM172 303h274c3 8 5 21 5 36c0 55 -32 101 -105 101
c-82 0 -147 -58 -174 -137zM202 595l155 146h113l77 -146h-91l-58 67l-96 -67h-100z" />
    <glyph glyph-name="edieresis" unicode="&#xeb;" horiz-adv-x="600" 
d="M159 220c1 -79 48 -133 137 -133c51 0 90 17 135 51l58 -77c-50 -41 -114 -73 -205 -73c-147 0 -240 89 -240 231c0 156 127 320 311 320c135 0 211 -90 211 -205c0 -37 -9 -76 -23 -114h-384zM172 303h274c3 8 5 21 5 36c0 55 -32 101 -105 101
c-82 0 -147 -58 -174 -137zM416 595l32 118h123l-33 -118h-122zM217 595l32 118h123l-32 -118h-123z" />
    <glyph glyph-name="igrave" unicode="&#xec;" horiz-adv-x="286" 
d="M12 0l142 528h121l-142 -528h-121zM199 595l-91 115l113 49l61 -164h-83z" />
    <glyph glyph-name="iacute" unicode="&#xed;" horiz-adv-x="286" 
d="M12 0l142 528h121l-142 -528h-121zM158 595l150 164l108 -49l-153 -115h-105z" />
    <glyph glyph-name="icircumflex" unicode="&#xee;" horiz-adv-x="286" 
d="M12 0l142 528h121l-142 -528h-121zM52 595l155 146h113l77 -146h-91l-58 67l-96 -67h-100z" />
    <glyph glyph-name="idieresis" unicode="&#xef;" horiz-adv-x="286" 
d="M12 0l142 528h121l-142 -528h-121zM267 595l32 118h123l-33 -118h-122zM68 595l32 118h123l-32 -118h-123z" />
    <glyph glyph-name="eth" unicode="&#xf0;" horiz-adv-x="631" 
d="M281 -12c-141 0 -240 94 -240 229c0 149 124 269 267 269c68 0 113 -23 152 -57l-71 160l-141 -55l-32 64l143 56l-34 76h123l16 -37l115 45l32 -64l-119 -46l48 -116c30 -71 45 -131 45 -200c0 -175 -116 -324 -304 -324zM289 92c99 0 173 84 173 174
c0 75 -52 131 -135 131c-95 0 -169 -80 -169 -173c0 -83 56 -132 131 -132z" />
    <glyph glyph-name="ntilde" unicode="&#xf1;" horiz-adv-x="617" 
d="M5 0l141 528h121l-18 -68c42 42 93 79 160 79c98 0 161 -61 161 -158c0 -28 -8 -62 -16 -93l-76 -288h-121l78 293c5 17 8 38 8 53c0 53 -34 83 -92 83c-68 0 -124 -54 -145 -132l-80 -297h-121zM267 590l-67 32c34 74 80 122 138 122c33 0 52 -13 75 -31
c25 -20 35 -27 52 -27c28 0 46 23 66 59l68 -32c-34 -74 -81 -122 -139 -122c-33 0 -52 12 -75 31c-25 19 -35 27 -51 27c-28 0 -47 -24 -67 -59z" />
    <glyph glyph-name="ograve" unicode="&#xf2;" horiz-adv-x="646" 
d="M293 -12c-151 0 -248 102 -248 241c0 161 138 310 308 310c151 0 248 -102 248 -242c0 -161 -140 -309 -308 -309zM300 93c102 0 181 105 181 201c0 89 -55 140 -135 140c-104 0 -181 -107 -181 -201c0 -89 55 -140 135 -140zM359 595l-91 115l113 49l61 -164h-83z" />
    <glyph glyph-name="oacute" unicode="&#xf3;" horiz-adv-x="646" 
d="M293 -12c-151 0 -248 102 -248 241c0 161 138 310 308 310c151 0 248 -102 248 -242c0 -161 -140 -309 -308 -309zM300 93c102 0 181 105 181 201c0 89 -55 140 -135 140c-104 0 -181 -107 -181 -201c0 -89 55 -140 135 -140zM298 595l150 164l108 -49l-153 -115h-105z
" />
    <glyph glyph-name="ocircumflex" unicode="&#xf4;" horiz-adv-x="646" 
d="M293 -12c-151 0 -248 102 -248 241c0 161 138 310 308 310c151 0 248 -102 248 -242c0 -161 -140 -309 -308 -309zM300 93c102 0 181 105 181 201c0 89 -55 140 -135 140c-104 0 -181 -107 -181 -201c0 -89 55 -140 135 -140zM215 595l155 146h113l77 -146h-91l-58 67
l-96 -67h-100z" />
    <glyph glyph-name="otilde" unicode="&#xf5;" horiz-adv-x="646" 
d="M293 -12c-151 0 -248 102 -248 241c0 161 138 310 308 310c151 0 248 -102 248 -242c0 -161 -140 -309 -308 -309zM300 93c102 0 181 105 181 201c0 89 -55 140 -135 140c-104 0 -181 -107 -181 -201c0 -89 55 -140 135 -140zM263 590l-67 32c34 74 80 122 138 122
c33 0 52 -13 75 -31c25 -20 35 -27 52 -27c28 0 46 23 66 59l68 -32c-34 -74 -81 -122 -139 -122c-33 0 -52 12 -75 31c-25 19 -35 27 -51 27c-28 0 -47 -24 -67 -59z" />
    <glyph glyph-name="odieresis" unicode="&#xf6;" horiz-adv-x="646" 
d="M293 -12c-151 0 -248 102 -248 241c0 161 138 310 308 310c151 0 248 -102 248 -242c0 -161 -140 -309 -308 -309zM300 93c102 0 181 105 181 201c0 89 -55 140 -135 140c-104 0 -181 -107 -181 -201c0 -89 55 -140 135 -140zM424 595l32 118h123l-33 -118h-122zM225 595
l32 118h123l-32 -118h-123z" />
    <glyph glyph-name="divide" unicode="&#xf7;" horiz-adv-x="640" 
d="M214 82l36 129h122l-35 -129h-123zM99 300l30 109h472l-29 -109h-473zM327 496l34 131h122l-35 -131h-121z" />
    <glyph glyph-name="oslash" unicode="&#xf8;" horiz-adv-x="646" 
d="M293 -12c-69 0 -127 22 -169 58l-58 -51h-114l124 109c-20 36 -31 78 -31 125c0 161 138 310 308 310c67 0 124 -21 165 -56l58 51h113l-121 -107c22 -37 33 -81 33 -130c0 -161 -140 -309 -308 -309zM169 181l265 231c-23 17 -51 26 -85 26c-109 0 -188 -110 -188 -205
c0 -20 3 -37 8 -52zM297 89c108 0 188 108 188 205c0 21 -3 41 -9 57l-267 -234c22 -18 52 -28 88 -28z" />
    <glyph glyph-name="ugrave" unicode="&#xf9;" horiz-adv-x="618" 
d="M209 -11c-98 0 -161 61 -161 158c0 28 8 62 16 93l77 288h121l-79 -293c-4 -16 -7 -38 -7 -53c0 -53 33 -83 91 -83c68 0 124 54 145 132l80 297h121l-141 -528h-121l18 68c-42 -42 -93 -79 -160 -79zM369 595l-91 115l113 49l61 -164h-83z" />
    <glyph glyph-name="uacute" unicode="&#xfa;" horiz-adv-x="618" 
d="M209 -11c-98 0 -161 61 -161 158c0 28 8 62 16 93l77 288h121l-79 -293c-4 -16 -7 -38 -7 -53c0 -53 33 -83 91 -83c68 0 124 54 145 132l80 297h121l-141 -528h-121l18 68c-42 -42 -93 -79 -160 -79zM308 595l150 164l108 -49l-153 -115h-105z" />
    <glyph glyph-name="ucircumflex" unicode="&#xfb;" horiz-adv-x="618" 
d="M209 -11c-98 0 -161 61 -161 158c0 28 8 62 16 93l77 288h121l-79 -293c-4 -16 -7 -38 -7 -53c0 -53 33 -83 91 -83c68 0 124 54 145 132l80 297h121l-141 -528h-121l18 68c-42 -42 -93 -79 -160 -79zM216 595l155 146h113l77 -146h-91l-58 67l-96 -67h-100z" />
    <glyph glyph-name="udieresis" unicode="&#xfc;" horiz-adv-x="618" 
d="M209 -11c-98 0 -161 61 -161 158c0 28 8 62 16 93l77 288h121l-79 -293c-4 -16 -7 -38 -7 -53c0 -53 33 -83 91 -83c68 0 124 54 145 132l80 297h121l-141 -528h-121l18 68c-42 -42 -93 -79 -160 -79zM429 595l32 118h123l-33 -118h-122zM230 595l32 118h123l-32 -118
h-123z" />
    <glyph glyph-name="yacute" unicode="&#xfd;" horiz-adv-x="585" 
d="M65 -163c-50 0 -86 13 -119 36l64 89c18 -13 46 -23 68 -23c31 0 56 13 90 59l-77 530h124l44 -391l233 391h132l-341 -543c-69 -109 -132 -148 -218 -148zM295 595l150 164l108 -49l-153 -115h-105z" />
    <glyph glyph-name="thorn" unicode="&#xfe;" horiz-adv-x="668" 
d="M-38 -160l239 890h121l-74 -272c48 48 100 81 169 81c118 0 206 -86 206 -226c0 -187 -142 -324 -294 -324c-93 0 -146 46 -178 105l-68 -254h-121zM315 92c99 0 182 95 182 212c0 81 -50 131 -125 131c-97 0 -190 -97 -190 -209c0 -77 54 -134 133 -134z" />
    <glyph glyph-name="ydieresis" unicode="&#xff;" horiz-adv-x="585" 
d="M65 -163c-50 0 -86 13 -119 36l64 89c18 -13 46 -23 68 -23c31 0 56 13 90 59l-77 530h124l44 -391l233 391h132l-341 -543c-69 -109 -132 -148 -218 -148zM404 595l32 118h123l-33 -118h-122zM205 595l32 118h123l-32 -118h-123z" />
    <glyph glyph-name="dotlessi" unicode="&#x131;" horiz-adv-x="286" 
d="M12 0l142 528h121l-142 -528h-121z" />
    <glyph glyph-name="Lslash" unicode="&#x141;" horiz-adv-x="655" 
d="M56 0l74 278l-80 -22l31 114l81 23l82 307h120l-73 -271l220 61l-31 -114l-219 -61l-55 -203h371l-30 -112h-491z" />
    <glyph glyph-name="lslash" unicode="&#x142;" horiz-adv-x="344" 
d="M42 0l80 296l-81 -22l30 115l81 22l86 319h121l-76 -282l82 22l-31 -115l-81 -22l-90 -333h-121z" />
    <glyph glyph-name="OE" unicode="&#x152;" horiz-adv-x="1096" 
d="M424 0c-128 0 -216 34 -277 95c-46 46 -72 114 -72 200c0 105 39 201 113 274c84 84 207 131 363 131h601l-30 -110h-374l-49 -183h330l-30 -109h-329l-51 -188h380l-30 -110h-545zM434 112h63l128 476h-88c-103 0 -195 -33 -257 -95c-50 -50 -77 -117 -77 -193
c0 -55 17 -98 48 -129c37 -37 97 -59 183 -59z" />
    <glyph glyph-name="oe" unicode="&#x153;" horiz-adv-x="1033" 
d="M593 222c0 -80 47 -135 137 -135c51 0 90 17 136 51l57 -77c-47 -41 -118 -73 -204 -73c-99 0 -171 43 -203 115c-50 -66 -126 -115 -223 -115c-150 0 -248 102 -248 241c0 162 136 310 307 310c106 0 177 -51 208 -123c49 69 126 123 229 123c136 0 211 -90 211 -205
c0 -37 -8 -76 -23 -112h-384zM606 302h274c3 9 5 22 5 37c0 55 -32 101 -105 101c-81 0 -147 -58 -174 -138zM299 93c104 0 182 100 182 199c0 87 -54 142 -134 142c-105 0 -182 -102 -182 -201c0 -85 54 -140 134 -140z" />
    <glyph glyph-name="Scaron" unicode="&#x160;" horiz-adv-x="637" 
d="M296 -10c-132 0 -233 46 -297 131l93 77c57 -65 121 -99 211 -99c78 0 135 39 135 97c0 42 -29 67 -129 106c-107 43 -180 91 -180 188c0 132 119 220 269 220c116 0 200 -42 257 -105l-86 -84c-53 52 -107 80 -180 80c-82 0 -130 -45 -130 -92c0 -45 35 -67 136 -107
c107 -42 174 -91 174 -188c0 -137 -125 -224 -273 -224zM377 758l-77 146h90l58 -66l97 66h100l-156 -146h-112z" />
    <glyph glyph-name="scaron" unicode="&#x161;" horiz-adv-x="498" 
d="M217 -12c-80 0 -172 31 -233 95l72 74c56 -56 117 -74 170 -74c48 0 85 24 85 63c0 26 -24 44 -77 66c-88 36 -152 70 -152 151c0 99 80 175 207 175c83 0 159 -36 203 -74l-67 -78c-48 38 -96 58 -145 58c-52 0 -81 -26 -81 -60c0 -27 24 -44 84 -69
c80 -34 145 -71 145 -148c0 -109 -91 -179 -211 -179zM276 595l-77 146h90l58 -66l97 66h100l-156 -146h-112z" />
    <glyph glyph-name="Ydieresis" unicode="&#x178;" horiz-adv-x="655" 
d="M189 0l74 278l-156 422h136l106 -316l277 316h152l-395 -435l-71 -265h-123zM482 758l32 118h123l-33 -118h-122zM283 758l32 118h123l-32 -118h-123z" />
    <glyph glyph-name="Zcaron" unicode="&#x17d;" horiz-adv-x="681" 
d="M-19 0l24 91l535 500h-387l30 109h557l-25 -91l-535 -500h404l-29 -109h-574zM402 758l-77 146h90l58 -66l97 66h100l-156 -146h-112z" />
    <glyph glyph-name="zcaron" unicode="&#x17e;" horiz-adv-x="554" 
d="M-24 0l23 83l388 346h-285l26 99h445l-22 -83l-389 -346h299l-27 -99h-458zM295 595l-77 146h90l58 -66l97 66h100l-156 -146h-112z" />
    <glyph glyph-name="florin" unicode="&#x192;" horiz-adv-x="538" 
d="M53 -9c-36 0 -60 4 -80 8l27 99c14 -4 27 -7 47 -7c32 0 62 22 86 76l83 189h-82l27 101h100l45 100c43 101 107 152 196 152c51 0 83 -7 110 -18l-28 -100c-21 10 -43 16 -75 16c-45 0 -75 -29 -100 -84l-29 -66h132l-27 -101h-150l-99 -225
c-46 -104 -109 -140 -183 -140z" />
    <glyph glyph-name="circumflex" unicode="&#x2c6;" 
d="M167 595l155 146h113l77 -146h-91l-58 67l-96 -67h-100z" />
    <glyph glyph-name="caron" unicode="&#x2c7;" 
d="M280 595l-77 146h90l58 -66l97 66h100l-156 -146h-112z" />
    <glyph glyph-name="breve" unicode="&#x2d8;" 
d="M353 593c-101 0 -150 63 -150 135c0 4 0 8 1 13h85c1 -35 25 -63 75 -63c41 0 75 28 98 63h87c-29 -91 -109 -148 -196 -148z" />
    <glyph glyph-name="dotaccent" unicode="&#x2d9;" 
d="M277 594l33 120h124l-32 -120h-125z" />
    <glyph glyph-name="ring" unicode="&#x2da;" 
d="M358 594c-65 0 -106 42 -106 97c0 67 56 124 125 124c65 0 106 -42 106 -97c0 -68 -56 -124 -125 -124zM359 642c40 0 69 36 69 75c0 29 -19 50 -52 50c-40 0 -69 -36 -69 -75c0 -29 19 -50 52 -50z" />
    <glyph glyph-name="ogonek" unicode="&#x2db;" 
d="M230 -164c-109 -7 -165 24 -165 81c0 28 18 66 37 93h86c-13 -23 -22 -50 -22 -67c0 -30 25 -48 79 -51z" />
    <glyph glyph-name="tilde" unicode="&#x2dc;" 
d="M224 590l-67 32c34 74 80 122 138 122c33 0 52 -13 75 -31c25 -20 35 -27 52 -27c28 0 46 23 66 59l68 -32c-34 -74 -81 -122 -139 -122c-33 0 -52 12 -75 31c-25 19 -35 27 -51 27c-28 0 -47 -24 -67 -59z" />
    <glyph glyph-name="hungarumlaut" unicode="&#x2dd;" 
d="M326 595l150 164l93 -49l-153 -115h-90zM144 595l149 164l93 -49l-152 -115h-90z" />
    <glyph glyph-name="Omega" unicode="&#x3a9;" horiz-adv-x="785" 
d="M649 0h-272l56 209c127 18 217 132 217 251c0 87 -65 152 -166 152c-145 0 -268 -115 -268 -261c0 -65 36 -132 111 -142c-11 -44 -44 -166 -56 -209h-271c6 22 20 73 26 96h184l15 54c-85 25 -126 115 -126 202c0 228 203 358 402 358c157 0 269 -101 269 -236
c0 -142 -109 -288 -266 -324c-3 -10 -12 -44 -15 -54h185c-7 -23 -19 -74 -25 -96z" />
    <glyph glyph-name="pi" unicode="&#x3c0;" 
d="M0 0v700h500v-700h-500zM81 49h340l-171 255zM50 95l170 254l-170 256v-510zM451 95v510l-172 -256zM250 395l171 255h-340z" />
    <glyph glyph-name="afii10023" unicode="&#x401;" horiz-adv-x="660" 
d="M512 758l32 118h123l-33 -118h-122zM313 758l32 118h123l-32 -118h-123zM19 0l188 700h514l-30 -110h-391l-49 -183h347l-30 -109h-347l-50 -188h397l-30 -110h-519z" />
    <glyph glyph-name="afii10051" unicode="&#x402;" horiz-adv-x="843" 
d="M490 -40c-49 0 -96 9 -122 21l42 103c16 -7 34 -11 63 -11c105 0 173 67 173 164c0 55 -42 103 -113 103c-73 0 -131 -22 -191 -66l-73 -274h-123l160 590h-199l29 110h567l-29 -110h-247l-54 -202c70 42 136 65 215 65c112 0 192 -79 192 -192
c0 -170 -121 -301 -290 -301z" />
    <glyph glyph-name="afii10052" unicode="&#x403;" horiz-adv-x="581" 
d="M353 758l150 164l108 -49l-153 -115h-105zM19 0l187 700h464l-29 -110h-341l-159 -590h-122z" />
    <glyph glyph-name="afii10053" unicode="&#x404;" horiz-adv-x="730" 
d="M392 96c83 0 143 33 198 87l72 -79c-66 -67 -155 -116 -274 -116c-179 0 -313 110 -313 297c0 217 175 427 418 427c125 0 222 -58 270 -142l-100 -68c-37 59 -90 100 -176 100c-125 0 -224 -87 -265 -195h297l-24 -109h-295c0 -102 75 -202 192 -202z" />
    <glyph glyph-name="afii10054" unicode="&#x405;" horiz-adv-x="637" 
d="M296 -10c-132 0 -233 46 -297 131l93 77c57 -65 121 -99 211 -99c78 0 135 39 135 97c0 42 -29 67 -129 106c-107 43 -180 91 -180 188c0 132 119 220 269 220c116 0 200 -42 257 -105l-86 -84c-53 52 -107 80 -180 80c-82 0 -130 -45 -130 -92c0 -45 35 -67 136 -107
c107 -42 174 -91 174 -188c0 -137 -125 -224 -273 -224z" />
    <glyph glyph-name="afii10055" unicode="&#x406;" horiz-adv-x="317" 
d="M26 0l188 700h124l-188 -700h-124z" />
    <glyph glyph-name="afii10056" unicode="&#x407;" horiz-adv-x="317" 
d="M320 758l32 118h123l-33 -118h-122zM121 758l32 118h123l-32 -118h-123zM26 0l188 700h124l-188 -700h-124z" />
    <glyph glyph-name="afii10057" unicode="&#x408;" horiz-adv-x="564" 
d="M190 -10c-97 0 -176 49 -219 130l90 71c35 -59 76 -87 134 -87c109 0 145 94 170 189l109 407h127l-117 -435c-54 -201 -141 -275 -294 -275z" />
    <glyph glyph-name="afii10058" unicode="&#x409;" horiz-adv-x="1132" 
d="M32 -8c-42 0 -87 9 -102 17l40 95c9 -4 35 -8 53 -8c53 0 136 19 255 465l37 139h477l-67 -251h128c152 0 244 -75 244 -189c0 -168 -138 -260 -336 -260h-279l158 590h-236l-24 -89c-126 -466 -230 -509 -348 -509zM634 109h135c123 0 202 46 202 139
c0 57 -46 97 -130 97h-143z" />
    <glyph glyph-name="afii10059" unicode="&#x40a;" horiz-adv-x="1129" 
d="M20 0l188 700h122l-73 -271h331l73 271h123l-73 -271h150c143 0 233 -71 233 -180c0 -160 -132 -249 -323 -249h-298l88 326h-331l-88 -326h-122zM624 108h151c118 0 193 42 193 131c0 54 -42 91 -125 91h-159z" />
    <glyph glyph-name="afii10060" unicode="&#x40b;" horiz-adv-x="851" 
d="M147 0l159 590h-198l28 110h567l-29 -110h-247l-53 -196c55 27 144 58 213 58c116 0 192 -52 192 -151c0 -19 -3 -40 -9 -63l-64 -238h-122l54 200c5 20 8 36 8 52c0 55 -36 88 -106 88c-61 0 -137 -23 -195 -56l-76 -284h-122z" />
    <glyph glyph-name="afii10061" unicode="&#x40c;" horiz-adv-x="723" 
d="M394 758l150 164l108 -49l-153 -115h-105zM19 0l188 700h124l-95 -354l410 354h169l-356 -299l179 -401h-136l-141 328l-169 -142l-49 -186h-124z" />
    <glyph glyph-name="afii10062" unicode="&#x40e;" horiz-adv-x="706" 
d="M466 753c-83 0 -138 52 -140 133l75 14c7 -41 25 -66 70 -66s77 25 95 66l72 -14c-25 -81 -88 -133 -172 -133zM136 -11c-57 0 -111 13 -142 36l71 91c24 -16 49 -22 80 -22c35 0 84 18 131 80l-152 526h131l110 -404l298 404h140l-406 -547
c-90 -121 -173 -164 -261 -164z" />
    <glyph glyph-name="afii10145" unicode="&#x40f;" horiz-adv-x="744" 
d="M206 -150l40 150h-227l187 700h123l-159 -590h321l158 590h122l-188 -700h-216l-41 -150h-120z" />
    <glyph glyph-name="afii10017" unicode="&#x410;" horiz-adv-x="763" 
d="M-50 0l497 705h118l119 -705h-126l-27 169h-331l-117 -169h-133zM275 278h241l-45 283z" />
    <glyph glyph-name="afii10018" unicode="&#x411;" horiz-adv-x="699" 
d="M19 0l188 700h506l-28 -110h-384l-45 -161h162c144 0 233 -70 233 -180c0 -166 -138 -249 -334 -249h-298zM170 109h166c115 0 190 43 190 131c0 53 -44 90 -122 90h-175z" />
    <glyph glyph-name="afii10019" unicode="&#x412;" horiz-adv-x="717" 
d="M19 0l188 700h268c154 0 229 -72 229 -168s-67 -158 -160 -178c62 -24 108 -68 108 -143c0 -124 -108 -211 -298 -211h-335zM169 109h202c98 0 159 41 159 109c0 53 -47 83 -123 83h-187zM248 405h174c98 0 158 38 158 107c0 49 -38 79 -116 79h-166z" />
    <glyph glyph-name="afii10020" unicode="&#x413;" horiz-adv-x="581" 
d="M19 0l187 700h464l-29 -110h-341l-159 -590h-122z" />
    <glyph glyph-name="afii10021" unicode="&#x414;" horiz-adv-x="764" 
d="M-92 -150l69 260h63c84 96 155 223 220 463l35 127h486l-159 -590h88l-86 -260h-104l40 150h-492l-51 -150h-109zM176 110h324l129 480h-245l-31 -110c-42 -148 -105 -286 -177 -370z" />
    <glyph glyph-name="afii10022" unicode="&#x415;" horiz-adv-x="660" 
d="M19 0l188 700h514l-30 -110h-391l-49 -183h347l-30 -109h-347l-50 -188h397l-30 -110h-519z" />
    <glyph glyph-name="afii10024" unicode="&#x416;" horiz-adv-x="1072" 
d="M-66 0l386 414l-172 286h136l209 -361l96 361h123l-94 -353l388 353h158l-342 -302l166 -398h-138l-130 312l-145 -124l-50 -188h-123l52 197l-72 118l-288 -315h-160z" />
    <glyph glyph-name="afii10025" unicode="&#x417;" horiz-adv-x="612" 
d="M258 -12c-138 0 -224 58 -270 129l87 70c43 -58 97 -89 186 -89c94 0 154 49 154 109c0 67 -60 94 -136 94h-66l26 104h68c101 0 173 39 173 109c0 57 -51 88 -118 88c-68 0 -119 -23 -172 -65l-65 79c59 53 139 96 250 96c135 0 230 -74 230 -177
c0 -100 -73 -162 -187 -186c68 -22 122 -70 122 -150c0 -122 -122 -211 -282 -211z" />
    <glyph glyph-name="afii10026" unicode="&#x418;" horiz-adv-x="765" 
d="M19 0l188 700h120l-136 -508l486 508h115l-187 -700h-121l134 508l-485 -508h-114z" />
    <glyph glyph-name="afii10027" unicode="&#x419;" horiz-adv-x="765" 
d="M498 753c-83 0 -138 52 -140 133l75 14c7 -41 25 -66 70 -66s77 25 95 66l72 -14c-25 -81 -88 -133 -172 -133zM19 0l188 700h120l-136 -508l486 508h115l-187 -700h-121l134 508l-485 -508h-114z" />
    <glyph glyph-name="afii10028" unicode="&#x41a;" horiz-adv-x="723" 
d="M19 0l188 700h124l-95 -354l410 354h169l-356 -299l179 -401h-136l-141 328l-169 -142l-49 -186h-124z" />
    <glyph glyph-name="afii10029" unicode="&#x41b;" horiz-adv-x="765" 
d="M32 -9c-43 0 -87 10 -102 18l39 95c10 -4 36 -8 54 -8c55 0 136 19 255 465l37 139h477l-188 -700h-121l157 590h-236l-20 -76c-123 -467 -234 -523 -352 -523z" />
    <glyph glyph-name="afii10030" unicode="&#x41c;" horiz-adv-x="868" 
d="M19 0l188 700h125l122 -331l300 331h141l-188 -700h-125l135 502l-308 -330h-4l-129 328l-134 -500h-123z" />
    <glyph glyph-name="afii10031" unicode="&#x41d;" horiz-adv-x="756" 
d="M19 0l188 700h124l-78 -291h329l78 291h123l-188 -700h-123l79 295h-329l-79 -295h-124z" />
    <glyph glyph-name="afii10032" unicode="&#x41e;" horiz-adv-x="836" 
d="M390 -12c-188 0 -314 133 -314 307c0 212 173 417 415 417c188 0 315 -133 315 -307c0 -212 -173 -417 -416 -417zM403 101c162 0 275 154 275 297c0 115 -74 201 -199 201c-162 0 -275 -154 -275 -297c0 -116 74 -201 199 -201z" />
    <glyph glyph-name="afii10033" unicode="&#x41f;" horiz-adv-x="744" 
d="M19 0l188 700h564l-188 -700h-123l159 590h-320l-158 -590h-122z" />
    <glyph glyph-name="afii10034" unicode="&#x420;" horiz-adv-x="674" 
d="M19 0l188 700h221c157 0 264 -66 264 -207c0 -169 -144 -266 -342 -266h-146l-61 -227h-124zM233 336h123c128 0 208 54 208 147c0 66 -50 105 -140 105h-124z" />
    <glyph glyph-name="afii10035" unicode="&#x421;" horiz-adv-x="730" 
d="M391 -12c-180 0 -316 114 -316 298c0 225 189 426 423 426c132 0 221 -59 273 -150l-102 -69c-42 64 -93 106 -185 106c-150 0 -281 -144 -281 -308c0 -115 79 -190 190 -190c79 0 131 32 186 80l81 -82c-66 -64 -148 -111 -269 -111z" />
    <glyph glyph-name="afii10036" unicode="&#x422;" horiz-adv-x="618" 
d="M174 0l158 586h-223l31 114h568l-31 -114h-222l-158 -586h-123z" />
    <glyph glyph-name="afii10037" unicode="&#x423;" horiz-adv-x="706" 
d="M136 -11c-57 0 -111 13 -142 36l71 91c24 -16 49 -22 80 -22c35 0 84 18 131 80l-152 526h131l110 -404l298 404h140l-406 -547c-90 -121 -173 -164 -261 -164z" />
    <glyph glyph-name="afii10038" unicode="&#x424;" horiz-adv-x="905" 
d="M307 -28l21 78c-181 8 -273 121 -273 263c0 189 152 346 395 346h41l18 67h124l-18 -67c181 -7 275 -119 275 -260c0 -189 -152 -349 -395 -349h-43l-21 -78h-124zM357 160l105 390h-27c-153 0 -252 -94 -252 -224c0 -96 60 -164 174 -166zM480 160h31
c151 0 252 92 252 223c0 96 -62 164 -178 167z" />
    <glyph glyph-name="afii10039" unicode="&#x425;" horiz-adv-x="698" 
d="M-43 0l347 363l-161 337h138l112 -250l230 250h158l-336 -352l166 -348h-138l-118 261l-240 -261h-158z" />
    <glyph glyph-name="afii10040" unicode="&#x426;" horiz-adv-x="755" 
d="M512 -150l40 150h-532l188 700h121l-159 -590h321l159 590h122l-159 -590h88l-85 -260h-104z" />
    <glyph glyph-name="afii10041" unicode="&#x427;" horiz-adv-x="697" 
d="M416 0l74 279c-55 -27 -141 -56 -211 -56c-116 0 -179 63 -179 162c0 21 3 45 10 70l66 245h122l-64 -238c-5 -17 -6 -33 -6 -46c0 -54 33 -83 103 -83c63 0 131 25 188 56l84 311h121l-187 -700h-121z" />
    <glyph glyph-name="afii10042" unicode="&#x428;" horiz-adv-x="1097" 
d="M20 0l187 700h122l-159 -590h277l158 590h121l-158 -590h276l159 590h121l-187 -700h-917z" />
    <glyph glyph-name="afii10043" unicode="&#x429;" horiz-adv-x="1109" 
d="M865 -150l41 150h-886l187 700h122l-159 -590h277l158 590h121l-158 -590h276l159 590h123l-159 -590h88l-85 -260h-105z" />
    <glyph glyph-name="afii10044" unicode="&#x42a;" horiz-adv-x="779" 
d="M130 0l158 590h-175l29 110h297l-68 -251h128c152 0 244 -76 244 -189c0 -168 -137 -260 -335 -260h-278zM281 110h135c122 0 201 45 201 138c0 58 -47 96 -130 96h-143z" />
    <glyph glyph-name="afii10045" unicode="&#x42b;" horiz-adv-x="930" 
d="M19 0l187 700h121l-66 -251h122c153 0 244 -77 244 -189c0 -168 -137 -260 -335 -260h-273zM169 110h131c122 0 201 45 201 138c0 58 -47 96 -130 96h-138zM648 0l187 700h122l-187 -700h-122z" />
    <glyph glyph-name="afii10046" unicode="&#x42c;" horiz-adv-x="667" 
d="M19 0l187 700h121l-66 -251h127c152 0 243 -77 243 -189c0 -168 -137 -260 -335 -260h-277zM170 110h134c122 0 201 45 201 138c0 58 -47 96 -130 96h-142z" />
    <glyph glyph-name="afii10047" unicode="&#x42d;" horiz-adv-x="730" 
d="M284 -12c-130 0 -229 60 -275 151l100 66c37 -64 90 -107 180 -107c129 0 229 89 263 200h-292l24 109h287c-8 114 -77 195 -191 195c-79 0 -138 -29 -191 -80l-71 80c65 63 152 110 265 110c175 0 313 -117 313 -304c0 -217 -169 -420 -412 -420z" />
    <glyph glyph-name="afii10048" unicode="&#x42e;" horiz-adv-x="1069" 
d="M644 -13c-177 0 -290 136 -293 310h-129l-80 -297h-123l188 700h122l-78 -295h115c50 175 203 307 381 307c179 0 292 -129 292 -300c0 -231 -177 -425 -395 -425zM655 96c141 0 257 139 257 304c0 116 -69 202 -179 202c-141 0 -257 -140 -257 -305
c0 -116 69 -201 179 -201z" />
    <glyph glyph-name="afii10049" unicode="&#x42f;" horiz-adv-x="720" 
d="M-25 0l265 266c-85 29 -128 91 -128 177c0 160 134 257 337 257h298l-187 -700h-123l66 245h-141l-234 -245h-153zM374 345h155l66 246h-148c-134 0 -209 -54 -209 -145c0 -65 54 -101 136 -101z" />
    <glyph glyph-name="afii10065" unicode="&#x430;" horiz-adv-x="583" 
d="M174 -11c-91 0 -161 57 -161 145c0 122 99 190 235 190c58 0 111 -10 158 -26l3 11c4 16 6 26 6 42c0 47 -34 78 -115 78c-53 0 -103 -12 -145 -29l-20 100c54 22 117 36 189 36c139 0 212 -61 212 -164c0 -25 -4 -49 -11 -75l-79 -297h-119l18 69
c-46 -49 -99 -80 -171 -80zM221 78c75 0 143 59 160 124l6 23c-33 10 -73 20 -120 20c-81 0 -130 -40 -130 -95c0 -46 32 -72 84 -72z" />
    <glyph glyph-name="afii10066" unicode="&#x431;" horiz-adv-x="647" 
d="M301 -13c-162 0 -247 104 -247 250c0 167 73 393 287 433l287 53l12 -97l-295 -59c-106 -21 -151 -82 -171 -151c35 40 106 91 206 91c131 0 227 -84 227 -218c0 -163 -144 -302 -306 -302zM305 92c93 0 181 89 181 192c0 79 -50 133 -135 133c-98 0 -179 -87 -179 -191
c0 -74 46 -134 133 -134z" />
    <glyph glyph-name="afii10067" unicode="&#x432;" horiz-adv-x="593" 
d="M5 0l141 528h240c119 0 174 -55 174 -126s-53 -118 -129 -136c51 -14 91 -51 91 -108c0 -91 -80 -158 -229 -158h-288zM150 89h132c73 0 118 30 118 79c0 40 -37 62 -93 62h-119zM209 308h113c72 0 117 30 117 77c0 37 -29 56 -84 56h-111z" />
    <glyph glyph-name="afii10068" unicode="&#x433;" horiz-adv-x="463" 
d="M5 0l141 528h370l-27 -101h-249l-115 -427h-120z" />
    <glyph glyph-name="afii10069" unicode="&#x434;" horiz-adv-x="639" 
d="M-80 -127l59 228h55c61 74 115 178 161 358l18 69h407l-115 -427h78l-75 -228h-101l34 127h-372l-45 -127h-104zM161 101h224l88 326h-172l-15 -57c-26 -99 -82 -218 -125 -269z" />
    <glyph glyph-name="afii10070" unicode="&#x435;" horiz-adv-x="600" 
d="M284 -12c-147 0 -240 89 -240 231c0 156 127 320 311 320c135 0 211 -90 211 -205c0 -37 -9 -76 -23 -114h-384c1 -79 48 -133 137 -133c51 0 90 17 135 51l58 -77c-50 -41 -114 -73 -205 -73zM172 303h274c3 8 5 21 5 36c0 55 -32 101 -105 101
c-82 0 -147 -58 -174 -137z" />
    <glyph glyph-name="afii10072" unicode="&#x436;" horiz-adv-x="876" 
d="M-61 0l294 318l-126 210h125l150 -263l70 263h120l-70 -262l287 262h142l-255 -226l119 -302h-125l-91 222l-115 -100l-33 -122h-119l34 130l-56 92l-204 -222h-147z" />
    <glyph glyph-name="afii10073" unicode="&#x437;" horiz-adv-x="515" 
d="M207 -12c-93 0 -164 25 -223 78l65 82c44 -39 94 -62 157 -62c67 0 120 29 120 80c0 34 -29 58 -97 58h-69l22 85h62c64 0 108 34 108 80c0 32 -32 53 -84 53c-50 0 -116 -18 -161 -52l-41 74c61 46 139 75 226 75c117 0 183 -57 183 -128c0 -76 -55 -116 -107 -137
c47 -18 80 -54 80 -107c0 -99 -80 -179 -241 -179z" />
    <glyph glyph-name="afii10074" unicode="&#x438;" horiz-adv-x="635" 
d="M5 0l141 528h117l-95 -353l348 353h115l-141 -528h-117l95 354l-347 -354h-116z" />
    <glyph glyph-name="afii10075" unicode="&#x439;" horiz-adv-x="635" 
d="M399 590c-81 0 -133 51 -134 131l71 13c7 -40 24 -65 68 -65s75 25 92 65l69 -13c-25 -80 -85 -131 -166 -131zM5 0l141 528h117l-95 -353l348 353h115l-141 -528h-117l95 354l-347 -354h-116z" />
    <glyph glyph-name="afii10076" unicode="&#x43a;" horiz-adv-x="580" 
d="M6 0l141 528h120l-68 -254l287 254h150l-265 -229l128 -299h-130l-96 218l-115 -96l-32 -122h-120z" />
    <glyph glyph-name="afii10077" unicode="&#x43b;" horiz-adv-x="629" 
d="M15 -7c-19 0 -60 4 -76 11l33 94c13 -3 27 -5 35 -5c56 0 96 21 193 367l19 68h405l-141 -528h-120l115 427h-174l-12 -44c-102 -375 -173 -390 -277 -390z" />
    <glyph glyph-name="afii10078" unicode="&#x43c;" horiz-adv-x="721" 
d="M5 0l141 528h106l105 -242l230 242h130l-141 -528h-120l94 352l-230 -232l-103 231l-94 -351h-118z" />
    <glyph glyph-name="afii10079" unicode="&#x43d;" horiz-adv-x="626" 
d="M5 0l141 528h121l-56 -210h234l57 210h120l-141 -528h-120l58 218h-235l-58 -218h-121z" />
    <glyph glyph-name="afii10080" unicode="&#x43e;" horiz-adv-x="646" 
d="M293 -12c-151 0 -248 102 -248 241c0 161 138 310 308 310c151 0 248 -102 248 -242c0 -161 -140 -309 -308 -309zM300 93c102 0 181 105 181 201c0 89 -55 140 -135 140c-104 0 -181 -107 -181 -201c0 -89 55 -140 135 -140z" />
    <glyph glyph-name="afii10081" unicode="&#x43f;" horiz-adv-x="618" 
d="M5 0l141 528h468l-141 -528h-120l115 427h-228l-115 -427h-120z" />
    <glyph glyph-name="afii10082" unicode="&#x440;" horiz-adv-x="668" 
d="M-38 -160l184 688h121l-19 -70c48 48 100 81 169 81c118 0 206 -86 206 -226c0 -187 -142 -324 -294 -324c-93 0 -146 46 -178 105l-68 -254h-121zM315 92c99 0 182 95 182 212c0 81 -50 131 -125 131c-97 0 -190 -97 -190 -209c0 -77 54 -134 133 -134z" />
    <glyph glyph-name="afii10083" unicode="&#x441;" horiz-adv-x="561" 
d="M286 -12c-136 0 -242 91 -242 235c0 173 144 316 312 316c113 0 178 -56 214 -120l-94 -64c-28 45 -62 79 -130 79c-95 0 -181 -98 -181 -210c0 -83 57 -132 125 -132c53 0 93 22 135 59l64 -79c-55 -50 -114 -84 -203 -84z" />
    <glyph glyph-name="afii10084" unicode="&#x442;" horiz-adv-x="506" 
d="M124 0l114 427h-178l27 101h469l-27 -101h-171l-115 -427h-119z" />
    <glyph glyph-name="afii10085" unicode="&#x443;" horiz-adv-x="585" 
d="M65 -163c-50 0 -86 13 -119 36l64 89c18 -13 46 -23 68 -23c31 0 56 13 90 59l-77 530h124l44 -391l233 391h132l-341 -543c-69 -109 -132 -148 -218 -148z" />
    <glyph glyph-name="afii10086" unicode="&#x444;" horiz-adv-x="892" 
d="M276 -160l52 196c-35 -26 -76 -46 -129 -46c-96 0 -157 64 -157 192c0 157 93 354 282 354c55 0 96 -26 124 -55l63 236h119l-62 -231c38 28 76 50 130 50c97 0 158 -70 158 -197c0 -157 -94 -349 -281 -349c-59 0 -99 22 -126 48l-53 -198h-120zM255 90
c34 0 67 14 99 37l72 273c-21 23 -53 36 -88 36c-112 0 -173 -125 -173 -241c0 -60 27 -105 90 -105zM560 90c111 0 172 118 172 238c0 60 -28 108 -89 108c-35 0 -67 -13 -98 -36l-74 -274c22 -24 54 -36 89 -36z" />
    <glyph glyph-name="afii10087" unicode="&#x445;" horiz-adv-x="572" 
d="M-44 0l269 275l-122 253h130l75 -169l156 169h146l-256 -265l125 -263h-130l-79 180l-167 -180h-147z" />
    <glyph glyph-name="afii10088" unicode="&#x446;" horiz-adv-x="634" 
d="M401 -127l34 127h-430l141 528h121l-114 -427h226l115 427h120l-114 -427h77l-75 -228h-101z" />
    <glyph glyph-name="afii10089" unicode="&#x447;" horiz-adv-x="577" 
d="M317 0l52 201c-40 -19 -112 -38 -165 -38c-88 0 -141 49 -141 125c0 16 3 33 8 51l51 189h120l-45 -172c-3 -12 -7 -24 -7 -36c0 -34 22 -57 67 -57s99 14 140 38l61 227h120l-142 -528h-119z" />
    <glyph glyph-name="afii10090" unicode="&#x448;" horiz-adv-x="903" 
d="M5 0l141 528h121l-115 -427h196l115 427h120l-115 -427h196l115 427h120l-141 -528h-753z" />
    <glyph glyph-name="afii10091" unicode="&#x449;" horiz-adv-x="919" 
d="M685 -127l35 127h-715l141 528h121l-115 -427h196l115 427h120l-115 -427h196l115 427h120l-115 -427h77l-74 -228h-102z" />
    <glyph glyph-name="afii10092" unicode="&#x44a;" horiz-adv-x="636" 
d="M89 0c39 142 94 348 115 427h-146l27 101h266l-51 -190h118c116 0 184 -59 184 -143c0 -125 -103 -195 -252 -195h-261zM236 97h110c83 0 136 31 136 91c0 40 -38 60 -84 60h-122z" />
    <glyph glyph-name="afii10093" unicode="&#x44b;" horiz-adv-x="793" 
d="M5 0l142 528h120l-51 -190h103c116 0 184 -59 184 -143c0 -125 -103 -195 -252 -195h-246zM152 97h95c83 0 136 31 136 91c0 40 -38 60 -84 60h-107zM527 0l141 528h120l-141 -528h-120z" />
    <glyph glyph-name="afii10094" unicode="&#x44c;" horiz-adv-x="552" 
d="M5 0l142 528h120l-51 -190h118c116 0 184 -59 184 -143c0 -125 -103 -195 -252 -195h-261zM152 97h110c83 0 136 31 136 91c0 40 -38 60 -84 60h-122z" />
    <glyph glyph-name="afii10095" unicode="&#x44d;" horiz-adv-x="561" 
d="M211 -12c-109 0 -180 53 -215 117l88 65c25 -46 62 -82 128 -82c79 0 148 57 175 135h-202l20 89h192c-5 84 -62 126 -128 126c-51 0 -94 -20 -133 -57l-68 73c52 52 121 85 211 85c128 0 237 -96 237 -240c0 -174 -139 -311 -305 -311z" />
    <glyph glyph-name="afii10096" unicode="&#x44e;" horiz-adv-x="860" 
d="M517 -12c-146 0 -225 97 -232 226h-102l-57 -214h-121l141 528h120l-57 -214h88c38 124 147 225 287 225c150 0 231 -102 231 -235c0 -166 -123 -316 -298 -316zM523 92c103 0 174 100 174 207c0 82 -44 136 -123 136c-103 0 -174 -104 -174 -209c0 -83 44 -134 123 -134
z" />
    <glyph glyph-name="afii10097" unicode="&#x44f;" horiz-adv-x="592" 
d="M-26 0l189 196c-59 20 -91 71 -91 132c0 122 102 200 257 200h258l-141 -528h-120l47 174h-87l-165 -174h-147zM285 264h112l45 166h-105c-93 0 -145 -36 -145 -99c0 -46 37 -67 93 -67z" />
    <glyph glyph-name="afii10071" unicode="&#x451;" horiz-adv-x="600" 
d="M411 595l32 118h123l-33 -118h-122zM212 595l32 118h123l-32 -118h-123zM284 -12c-147 0 -240 89 -240 231c0 156 127 320 311 320c135 0 211 -90 211 -205c0 -37 -9 -76 -23 -114h-384c1 -79 48 -133 137 -133c51 0 90 17 135 51l58 -77c-50 -41 -114 -73 -205 -73z
M172 303h274c3 8 5 21 5 36c0 55 -32 101 -105 101c-82 0 -147 -58 -174 -137z" />
    <glyph glyph-name="afii10099" unicode="&#x452;" horiz-adv-x="618" 
d="M299 -12c-39 0 -79 6 -101 16l37 99c15 -7 33 -11 61 -11c66 0 103 49 126 135c8 31 18 66 18 92c0 57 -31 97 -92 97c-68 0 -125 -54 -146 -132l-77 -284h-120l149 560h-73l23 87h73l23 83h120l-22 -83h191l-23 -87h-191l-30 -113c42 42 93 78 161 78
c104 0 162 -71 162 -166c0 -24 -4 -51 -11 -79c-49 -207 -101 -292 -258 -292z" />
    <glyph glyph-name="afii10100" unicode="&#x453;" horiz-adv-x="463" 
d="M241 595l150 164l108 -49l-153 -115h-105zM5 0l141 528h370l-27 -101h-249l-115 -427h-120z" />
    <glyph glyph-name="afii10101" unicode="&#x454;" horiz-adv-x="562" 
d="M561 421l-86 -60c-24 45 -64 77 -126 77c-77 0 -145 -53 -172 -126h206l-20 -89h-201c4 -90 59 -134 130 -134c56 0 98 21 137 56l62 -77c-51 -47 -118 -80 -209 -80c-129 0 -237 89 -237 233c0 175 139 318 305 318c107 0 175 -55 211 -118z" />
    <glyph glyph-name="afii10102" unicode="&#x455;" horiz-adv-x="498" 
d="M217 -12c-80 0 -172 31 -233 95l72 74c56 -56 117 -74 170 -74c48 0 85 24 85 63c0 26 -24 44 -77 66c-88 36 -152 70 -152 151c0 99 80 175 207 175c83 0 159 -36 203 -74l-67 -78c-48 38 -96 58 -145 58c-52 0 -81 -26 -81 -60c0 -27 24 -44 84 -69
c80 -34 145 -71 145 -148c0 -109 -91 -179 -211 -179z" />
    <glyph glyph-name="afii10103" unicode="&#x456;" horiz-adv-x="286" 
d="M171 609l31 115h131l-32 -115h-130zM12 0l142 528h121l-142 -528h-121z" />
    <glyph glyph-name="afii10104" unicode="&#x457;" horiz-adv-x="286" 
d="M260 595l32 118h123l-33 -118h-122zM61 595l32 118h123l-32 -118h-123zM12 0l142 528h121l-142 -528h-121z" />
    <glyph glyph-name="afii10105" unicode="&#x458;" horiz-adv-x="285" 
d="M171 609l31 115h130l-31 -115h-130zM-48 -163c-30 0 -53 3 -77 9l26 96c13 -3 26 -6 40 -6c34 0 61 25 73 72l140 520h121l-144 -535c-31 -114 -97 -156 -179 -156z" />
    <glyph glyph-name="afii10106" unicode="&#x459;" horiz-adv-x="908" 
d="M14 -7c-18 0 -59 4 -75 11l33 94c13 -3 27 -5 35 -5c56 0 100 21 193 367l19 68h405l-51 -190h118c114 0 183 -56 183 -143c0 -125 -102 -195 -252 -195h-259l115 427h-174l-12 -40c-106 -374 -170 -394 -278 -394zM509 97h110c83 0 136 31 136 91c0 40 -38 60 -84 60
h-122z" />
    <glyph glyph-name="afii10107" unicode="&#x45a;" horiz-adv-x="896" 
d="M5 0l141 528h121l-54 -201h235l54 201h119l-53 -201h109c114 0 185 -53 185 -139c0 -120 -104 -188 -252 -188h-249l61 227h-236l-61 -227h-120zM504 96h98c85 0 140 29 140 86c0 41 -42 60 -90 60h-107z" />
    <glyph glyph-name="afii10108" unicode="&#x45b;" horiz-adv-x="618" 
d="M5 0l150 561h-74l23 86h74l22 83h121l-22 -83h191l-23 -86h-192l-29 -114c42 42 92 79 160 79c98 0 161 -61 161 -158c0 -27 -8 -62 -16 -93l-73 -275h-121l76 281c4 16 7 37 7 52c0 54 -34 84 -91 84c-69 0 -125 -54 -146 -133l-77 -284h-121z" />
    <glyph glyph-name="afii10109" unicode="&#x45c;" horiz-adv-x="580" 
d="M289 595l150 164l108 -49l-153 -115h-105zM6 0l141 528h120l-68 -254l287 254h150l-265 -229l128 -299h-130l-96 218l-115 -96l-32 -122h-120z" />
    <glyph glyph-name="afii10110" unicode="&#x45e;" horiz-adv-x="585" 
d="M359 590c-81 0 -133 51 -134 131l71 13c7 -40 24 -65 68 -65s75 25 92 65l69 -13c-25 -80 -85 -131 -166 -131zM65 -163c-50 0 -86 13 -119 36l64 89c18 -13 46 -23 68 -23c31 0 56 13 90 59l-77 530h124l44 -391l233 391h132l-341 -543c-69 -109 -132 -148 -218 -148z
" />
    <glyph glyph-name="afii10193" unicode="&#x45f;" horiz-adv-x="615" 
d="M148 -127l34 127h-177l141 528h121l-114 -427h226l114 427h120l-140 -528h-175l-35 -127h-115z" />
    <glyph glyph-name="afii10050" unicode="&#x490;" horiz-adv-x="581" 
d="M19 0l188 700h343l40 150h104l-53 -260h-341l-159 -590h-122z" />
    <glyph glyph-name="afii10098" unicode="&#x491;" horiz-adv-x="463" 
d="M5 0l141 528h254l34 124h101l-46 -225h-249l-115 -427h-120z" />
    <glyph glyph-name="endash" unicode="&#x2013;" horiz-adv-x="530" 
d="M53 249l31 115h416l-31 -115h-416z" />
    <glyph glyph-name="emdash" unicode="&#x2014;" horiz-adv-x="900" 
d="M53 249l31 115h786l-31 -115h-786z" />
    <glyph glyph-name="quoteleft" unicode="&#x2018;" horiz-adv-x="293" 
d="M109 423l31 116c31 114 91 159 194 166l9 -51c-72 -10 -106 -42 -115 -94h51l-37 -137h-133z" />
    <glyph glyph-name="quoteright" unicode="&#x2019;" horiz-adv-x="293" 
d="M102 417l-9 52c72 10 106 42 115 94h-51l37 137h133l-31 -117c-31 -113 -91 -158 -194 -166z" />
    <glyph glyph-name="quotesinglbase" unicode="&#x201a;" horiz-adv-x="293" 
d="M-45 -145l-9 51c72 10 105 43 115 94h-52l37 137h133l-31 -116c-30 -114 -90 -158 -193 -166z" />
    <glyph glyph-name="quotedblleft" unicode="&#x201c;" horiz-adv-x="524" 
d="M341 422l32 117c30 113 90 158 193 166l9 -52c-72 -10 -106 -42 -115 -93h52l-37 -138h-134zM110 422l31 117c30 113 90 158 193 166l9 -52c-72 -10 -106 -42 -115 -93h52l-37 -138h-133z" />
    <glyph glyph-name="quotedblright" unicode="&#x201d;" horiz-adv-x="524" 
d="M331 417l-9 52c72 10 106 42 115 94h-51l37 137h133l-31 -117c-31 -113 -90 -158 -194 -166zM100 417l-9 52c72 10 105 42 115 94h-52l37 137h133l-31 -117c-30 -113 -90 -158 -193 -166z" />
    <glyph glyph-name="quotedblbase" unicode="&#x201e;" horiz-adv-x="525" 
d="M187 -145l-9 51c72 10 106 43 115 94h-52l37 137h133l-31 -116c-30 -114 -90 -158 -193 -166zM-45 -145l-9 51c72 10 105 43 115 94h-52l37 137h133l-31 -116c-30 -114 -90 -158 -193 -166z" />
    <glyph glyph-name="dagger" unicode="&#x2020;" horiz-adv-x="411" 
d="M157 238l82 275l-124 -9l20 71l117 -9l26 134h79l-48 -134l124 9l-20 -71l-119 9l-65 -275h-72z" />
    <glyph glyph-name="daggerdbl" unicode="&#x2021;" horiz-adv-x="417" 
d="M93 0l47 134l-123 -9l19 71l118 -9l36 163l51 163l-123 -9l20 71l118 -9l25 134h79l-48 -134l124 9l-20 -71l-118 9l-36 -163l-52 -163l124 9l-19 -71l-118 9l-25 -134h-79z" />
    <glyph glyph-name="bullet" unicode="&#x2022;" horiz-adv-x="491" 
d="M242 207c-70 0 -113 44 -113 114c0 88 67 178 161 178c69 0 112 -45 112 -114c0 -88 -67 -178 -160 -178z" />
    <glyph glyph-name="ellipsis" unicode="&#x2026;" horiz-adv-x="815" 
d="M535 0l37 135h130l-36 -135h-131zM272 0l36 135h131l-36 -135h-131zM9 0l36 135h131l-37 -135h-130z" />
    <glyph glyph-name="perthousand" unicode="&#x2030;" horiz-adv-x="1262" 
d="M236 346c-90 0 -149 63 -149 151c0 105 80 211 193 211c89 0 149 -63 149 -151c0 -105 -80 -211 -193 -211zM62 0l675 700h109l-676 -700h-108zM1028 -8c-89 0 -149 64 -149 151c0 106 80 211 193 211c90 0 149 -63 149 -150c0 -106 -80 -212 -193 -212zM628 -8
c-90 0 -149 64 -149 151c0 106 80 211 193 211c89 0 149 -63 149 -150c0 -106 -80 -212 -193 -212zM241 420c62 0 104 71 104 133c0 50 -26 81 -71 81c-61 0 -104 -71 -104 -133c0 -50 27 -81 71 -81zM1033 66c62 0 105 72 105 133c0 50 -27 82 -71 82
c-62 0 -105 -72 -105 -134c0 -49 27 -81 71 -81zM633 66c62 0 105 72 105 133c0 50 -27 82 -71 82c-62 0 -105 -72 -105 -134c0 -49 27 -81 71 -81z" />
    <glyph glyph-name="guilsinglleft" unicode="&#x2039;" horiz-adv-x="354" 
d="M152 34l-106 220l2 8l230 226l72 -65l-181 -177l81 -167z" />
    <glyph glyph-name="guilsinglright" unicode="&#x203a;" horiz-adv-x="354" 
d="M74 34l-71 64l180 178l-80 167l97 44l107 -219l-2 -8z" />
    <glyph glyph-name="fraction" unicode="&#x2044;" horiz-adv-x="529" 
d="M-121 -98l695 856h112l-696 -856h-111z" />
    <glyph glyph-name="Euro" unicode="&#x20ac;" horiz-adv-x="709" 
d="M389 -12c-147 0 -249 91 -263 237h-98l23 85h76c3 30 8 58 16 85h-70l23 85h73c57 134 173 232 326 232c135 0 209 -66 243 -162l-105 -51c-30 65 -67 102 -146 102s-142 -47 -181 -121h225l-23 -85h-234c-10 -27 -16 -56 -19 -85h231l-23 -85h-209
c11 -79 63 -126 137 -126c67 0 111 27 159 79l83 -72c-59 -70 -137 -118 -244 -118z" />
    <glyph glyph-name="afii61352" unicode="&#x2116;" horiz-adv-x="1025" 
d="M19 0l187 700h117l179 -480l129 480h123l-187 -700h-106l-187 495l-132 -495h-123zM696 142l21 78h265l-20 -78h-266zM884 282c-80 0 -128 58 -128 129c0 92 75 172 166 172c80 0 128 -58 128 -128c0 -93 -74 -173 -166 -173zM892 351c44 0 80 43 80 97
c0 38 -23 66 -58 66c-43 0 -81 -43 -81 -95c0 -40 24 -68 59 -68z" />
    <glyph glyph-name="published" unicode="&#x2117;" horiz-adv-x="830" 
d="M436 -12c-203 0 -361 163 -361 361s160 363 363 363s361 -163 361 -361s-160 -363 -363 -363zM436 24c185 0 325 147 325 327s-139 325 -323 325c-185 0 -324 -147 -324 -327s138 -325 322 -325zM308 167v380h153c90 0 147 -50 147 -129c0 -87 -71 -131 -154 -131h-72
v-120h-74zM382 352h73c49 0 78 26 78 65c0 42 -30 64 -78 64h-73v-129z" />
    <glyph glyph-name="trademark" unicode="&#x2122;" horiz-adv-x="697" 
d="M363 392l85 308h59l53 -146l132 146h66l-85 -308h-57l61 219l-135 -148h-6l-55 148l-61 -219h-57zM143 392l69 254h-94l15 54h248l-14 -54h-95l-70 -254h-59z" />
    <glyph glyph-name="partialdiff" unicode="&#x2202;" 
d="M0 0v700h500v-700h-500zM81 49h340l-171 255zM50 95l170 254l-170 256v-510zM451 95v510l-172 -256zM250 395l171 255h-340z" />
    <glyph glyph-name="Delta" unicode="&#x2206;" horiz-adv-x="775" 
d="M-40 0l487 702h115l113 -702h-715zM170 109h362l-60 446z" />
    <glyph glyph-name="product" unicode="&#x220f;" 
d="M0 0v700h500v-700h-500zM81 49h340l-171 255zM50 95l170 254l-170 256v-510zM451 95v510l-172 -256zM250 395l171 255h-340z" />
    <glyph glyph-name="summation" unicode="&#x2211;" 
d="M0 0v700h500v-700h-500zM81 49h340l-171 255zM50 95l170 254l-170 256v-510zM451 95v510l-172 -256zM250 395l171 255h-340z" />
    <glyph glyph-name="minus" unicode="&#x2212;" horiz-adv-x="640" 
d="M99 298l29 109h473l-30 -109h-472z" />
    <glyph glyph-name="radical" unicode="&#x221a;" horiz-adv-x="539" 
d="M647 791l-430 -954h-37l-121 340l-77 -11l-5 79l137 22l85 -265l356 789h92z" />
    <glyph glyph-name="infinity" unicode="&#x221e;" horiz-adv-x="805" 
d="M243 176c-106 0 -171 77 -171 179c0 100 62 178 166 178c87 0 142 -60 195 -119c53 59 102 119 191 119c104 0 169 -77 169 -178c0 -102 -62 -179 -168 -179c-81 0 -141 54 -192 111c-53 -57 -108 -111 -190 -111zM241 269c52 0 103 46 135 83c-34 34 -85 88 -137 88
c-48 0 -77 -41 -77 -87c0 -48 29 -84 79 -84zM625 269c50 0 77 38 77 84c0 49 -29 87 -80 87s-102 -52 -134 -88c36 -38 81 -83 137 -83z" />
    <glyph glyph-name="integral" unicode="&#x222b;" 
d="M0 0v700h500v-700h-500zM81 49h340l-171 255zM50 95l170 254l-170 256v-510zM451 95v510l-172 -256zM250 395l171 255h-340z" />
    <glyph glyph-name="approxequal" unicode="&#x2248;" horiz-adv-x="640" 
d="M657 528c-29 -75 -93 -159 -179 -159c-80 0 -184 66 -245 66c-38 0 -74 -33 -91 -68l-65 13c31 76 94 161 181 161c81 0 175 -67 243 -67c40 0 74 32 92 67c7 0 58 -12 64 -13zM602 322c-29 -75 -94 -159 -179 -159c-81 0 -184 67 -244 67c-38 0 -75 -34 -93 -69l-65 13
c31 76 94 161 180 161c84 0 177 -67 244 -67c40 0 74 31 93 67c6 -1 58 -12 64 -13z" />
    <glyph glyph-name="notequal" unicode="&#x2260;" horiz-adv-x="640" 
d="M125 420l30 110h270l105 134l78 -45l-71 -89h91l-30 -110h-145l-108 -138h217l-30 -108h-271l-102 -131l-77 45l66 86h-89l30 108h143l109 138h-216z" />
    <glyph glyph-name="lessequal" unicode="&#x2264;" horiz-adv-x="640" 
d="M524 130l-444 181l30 116l542 180l-31 -120l-412 -122l346 -123zM488 -6h-493l27 103h494z" />
    <glyph glyph-name="greaterequal" unicode="&#x2265;" horiz-adv-x="640" 
d="M583 310l-541 -180l31 123l411 122l-345 122l30 110l445 -181zM499 -5h-494l27 101h494z" />
    <glyph glyph-name="lozenge" unicode="&#x25ca;" 
d="M0 0v700h500v-700h-500zM81 49h340l-171 255zM50 95l170 254l-170 256v-510zM451 95v510l-172 -256zM250 395l171 255h-340z" />
    <glyph glyph-name="cyrBreve" unicode="&#xf6d1;" 
d="M354 590c-83 0 -138 52 -140 133l75 14c7 -41 25 -66 70 -66s77 25 95 66l72 -14c-25 -81 -88 -133 -172 -133z" />
    <glyph glyph-name="cyrbreve" unicode="&#xf6d4;" 
d="M353 590c-81 0 -133 51 -134 131l71 13c7 -40 24 -65 68 -65s75 25 92 65l69 -13c-25 -80 -85 -131 -166 -131z" />
    <glyph glyph-name="apple" unicode="&#xf8ff;" 
d="M0 0v700h500v-700h-500zM81 49h340l-171 255zM50 95l170 254l-170 256v-510zM451 95v510l-172 -256zM250 395l171 255h-340z" />
    <glyph glyph-name="ff" unicode="&#xfb00;" horiz-adv-x="793" 
d="M429 0l114 424h-67l28 104h67l11 43c28 112 98 164 200 164c42 0 78 -7 104 -18l-27 -101c-24 10 -49 16 -74 16c-44 0 -73 -24 -87 -74l-8 -30h146l-28 -104h-144l-114 -424h-121zM33 0l114 424h-67l28 104h67l10 43c30 112 99 164 201 164c42 0 78 -7 104 -18l-27 -101
c-24 10 -49 16 -74 16c-44 0 -73 -23 -87 -74l-8 -30h146l-28 -104h-144l-114 -424h-121z" />
    </font>
</defs>
</svg>
